Важное объявление!
У Нас Все раздачи мультитрекерные, при нуле пиров в релизах, можете смело вставать на закачку!
 
Автор Сообщение

HUNTER

Стаж:
4 года 4 месяца
Сообщений:
56772

Репутация: 101

[+] [-]
Вне форума [Профиль] [ЛС]

Леди из Шанхая / The Lady from Shanghai
Страна: США
Жанр: фильм-нуар, триллер, драма, криминал, детектив
Год выпуска: 1947
Продолжительность: 01:27:29
Перевод: Профессиональный (многоголосый закадровый) SomeWax
Перевод: Профессиональный (многоголосый закадровый) Total Film
Cубтитры: русские, английские
Оригинальная аудиодорожка: английский-Режиссер: Орсон Уэллс / Orson Welles
В ролях: Рита Хейворт, Орсон Уэллс, Эверетт Слоун, Гленн Андерс, Тед де Корсия, Эрскин Сэнфорд, Гас Шиллинг, Карл Фрэнк, Луис Мэрилл, Эвелин Эллис
Описание: По роману Шервуда Кинга.
На пустынной ночной аллее нью-йоркского Сентрал Парка Майкл О`Хара расшвыривает бандитов, напавших на Розали Баннистер. Гигант с лицом ребёнка, безработный моряк, он привлекает её своей первобытной мощью, и она предлагает Майклу работу на яхте мужа, преуспевающего адвоката, искалеченного полиомелитом калеки. Сражённый наповал роковой блондинкой, О’Хара отправляется в плавание. В пути Гризби, деловой партнер Баннистера, обращается к Майклу с весьма загадочным предложением — помочь инсценировать его убийство, для того чтобы тот мог исчезнуть и получить огромную страховку. Гризби обещает заплатить $5000, с такими деньгами Майкл и Розали смогут бежать и начать новую жизнь. Майкл соглашается и… практически подписывает себе смертный приговор.
IMDb || КиноПоиск-Тип релиза: BDRip 720p [CRiSC]
Контейнер: MKV
Видео: H.264/AVC, 986x720 at 23.976 fps, ~9435 kbps
Аудио#1: Russian: 48 kHz, AC3, 2.0 ch, 192 kbps |Многоголосый закадровый, SomeWax|
Аудио#2: Russian: 48 kHz, AC3, 2.0 ch, 192 kbps |Многоголосый закадровый, Total Film|
Аудио#3: English: 48 kHz, AC3 2.0 ch, 192 kbps
Аудио#4: English: 48 kHz, AAC 2.0 ch, 74 kbps |Commentary|
Формат субтитров: softsub (SRT)
Сэмпл

MediaInfo

General
Unique ID : 252383109411859997216847915555400400423 (0xBDDF3802733C281F85F8E97CBBAB3E27)
Complete name : The Lady from Shanghai.1947.720p-CRiSC. rutracker.mkv
Format : Matroska
Format version : Version 2
File size : 6.16 GiB
Duration : 1h 27mn
Overall bit rate : 10.1 Mbps
Movie name : Release for RuTracker
Encoded date : UTC 2014-03-18 07:26:34
Writing application : mkvmerge v5.0.1 ('Es ist Sommer') built on Nov 6 2011 16:23:40
Writing library : libebml v1.2.2 + libmatroska v1.3.0
Video
ID : 1
Format : AVC
Format/Info : Advanced Video Codec
Format profile : High@L4.1
Format settings, CABAC : Yes
Format settings, ReFrames : 11 frames
Codec ID : V_MPEG4/ISO/AVC
Duration : 1h 27mn
Width : 986 pixels
Height : 720 pixels
Display aspect ratio : 4:3
Frame rate : 23.976 fps
Color space : YUV
Chroma subsampling : 4:2:0
Bit depth : 8 bits
Scan type : Progressive
Title : CRiSC
Writing library : x264 core 142 r2389kMod 956c8d8
Encoding settings : cabac=1 / ref=11 / deblock=1:-3:-3 / analyse=0x3:0x133 / me=umh / subme=11 / psy=1 / fade_compensate=0.00 / psy_rd=0.90:0.00 / mixed_ref=1 / me_range=64 / chroma_me=1 / trellis=2 / 8x8dct=1 / cqm=0 / deadzone=21,11 / fast_pskip=0 / chroma_qp_offset=-2 / threads=12 / lookahead_threads=3 / sliced_threads=0 / nr=0 / decimate=0 / interlaced=0 / bluray_compat=0 / constrained_intra=0 / fgo=0 / bframes=11 / b_pyramid=2 / b_adapt=2 / b_bias=0 / direct=3 / weightb=1 / open_gop=0 / weightp=2 / keyint=250 / keyint_min=23 / scenecut=40 / intra_refresh=0 / rc_lookahead=40 / rc=crf / mbtree=0 / crf=17.0000 / qcomp=0.75 / qpmin=0 / qpmax=69 / qpstep=4 / vbv_maxrate=50000 / vbv_bufsize=62500 / crf_max=0.0 / nal_hrd=none / filler=0 / ip_ratio=1.40 / pb_ratio=1.30 / aq=1:0.50
Language : English
Default : Yes
Forced : No
Color primaries : BT.709-5, BT.1361, IEC 61966-2-4, SMPTE RP177
Transfer characteristics : BT.709-5, BT.1361
Matrix coefficients : BT.709-5, BT.1361, IEC 61966-2-4 709, SMPTE RP177
Audio #1
ID : 2
Format : AC-3
Format/Info : Audio Coding 3
Mode extension : CM (complete main)
Codec ID : A_AC3
Duration : 1h 27mn
Bit rate mode : Constant
Bit rate : 192 Kbps
Channel(s) : 2 channels
Channel positions : Front: L R
Sampling rate : 48.0 KHz
Bit depth : 16 bits
Compression mode : Lossy
Stream size : 120 MiB (2%)
Title : SomeWax
Language : Russian
Default : Yes
Forced : No
Audio #2
ID : 3
Format : AC-3
Format/Info : Audio Coding 3
Mode extension : CM (complete main)
Codec ID : A_AC3
Duration : 1h 27mn
Bit rate mode : Constant
Bit rate : 192 Kbps
Channel(s) : 2 channels
Channel positions : Front: L R
Sampling rate : 48.0 KHz
Bit depth : 16 bits
Compression mode : Lossy
Stream size : 120 MiB (2%)
Title : Total Film
Language : Russian
Default : No
Forced : No
Audio #3
ID : 4
Format : AC-3
Format/Info : Audio Coding 3
Mode extension : CM (complete main)
Codec ID : A_AC3
Duration : 1h 27mn
Bit rate mode : Constant
Bit rate : 192 Kbps
Channel(s) : 2 channels
Channel positions : Front: L R
Sampling rate : 48.0 KHz
Bit depth : 16 bits
Compression mode : Lossy
Stream size : 120 MiB (2%)
Title : Original
Language : English
Default : No
Forced : No
Audio #4
ID : 5
Format : AAC
Format/Info : Advanced Audio Codec
Format profile : HE-AAC / LC
Codec ID : A_AAC
Duration : 1h 27mn
Channel(s) : 2 channels
Channel positions : Front: L R
Sampling rate : 48.0 KHz / 24.0 KHz
Compression mode : Lossy
Delay relative to video : 40ms
Title : Commentary
Language : English
Default : No
Forced : No
Text #1
ID : 6
Format : UTF-8
Codec ID : S_TEXT/UTF8
Codec ID/Info : UTF-8 Plain Text
Language : Russian
Default : No
Forced : No
Text #2
ID : 7
Format : UTF-8
Codec ID : S_TEXT/UTF8
Codec ID/Info : UTF-8 Plain Text
Language : English
Default : No
Forced : No
Menu
00:00:00.000 : en:00:00:00.000
00:00:56.682 : en:00:00:56.682
00:07:18.521 : en:00:07:18.521
00:12:27.747 : en:00:12:27.747
00:18:23.102 : en:00:18:23.102
00:22:15.334 : en:00:22:15.334
00:32:25.944 : en:00:32:25.944
00:39:01.339 : en:00:39:01.339
00:44:46.225 : en:00:44:46.225
00:48:22.525 : en:00:48:22.525
00:56:04.861 : en:00:56:04.861
01:01:16.089 : en:01:01:16.089
01:10:12.208 : en:01:10:12.208
01:20:26.739 : en:01:20:26.739
01:27:10.851 : en:01:27:10.851

Скриншоты

WEB-DL vs Rip _______________________CRiSC vs Source

_________________
Показать сообщения:    

Текущее время: Сегодня 12:47

Часовой пояс: GMT



Вы не можете начинать темы
Вы не можете отвечать на сообщения
Вы не можете редактировать свои сообщения
Вы не можете удалять свои сообщения
Вы не можете голосовать в опросах
Вы не можете прикреплять файлы к сообщениям
Вы не можете скачивать файлы