Важное объявление!
У Нас Все раздачи мультитрекерные, при нуле пиров в релизах, можете смело вставать на закачку!
 
Автор Сообщение

HUNTER

Стаж:
4 года 4 месяца
Сообщений:
56839

Репутация: 101

[+] [-]
Вне форума [Профиль] [ЛС]

Лего. Фильм / The Lego Movie
«Кто был никем, тот всем ещё покажет»-
Страна: Австралия, США, Дания / Warner Bros., Village Roadshow Pictures, LEGO
Жанр: мультфильм, фэнтези, комедия, приключения
Продолжительность: 01:40:35
Год выпуска: 2014
Перевод: Профессиональный (дублированный) iTunes
Русские субтитры: есть-Режиссёр: Фил Лорд / Phil Lord, Кристофер Миллер / Christopher Mill
Роли озвучивали: Крис Прэтт, Уилл Феррелл, Элизабет Бэнкс, Уилл Арнетт, Лиам Нисон, Морган Фриман, Крэйг Берри, Элисон Бри, Дэвид Берроуз, Энтони Дэниелс
Описание: Обычная лего-фигурка соглашается присоединиться к походу против злого лего-диктатора, планирующего склеить вместе всю вселенную…-Рип от CRiSC
Семпл: sendfile→
Качество: BDRip 720p
Формат: MKV
Видео: 1280 x 534 (2.397), x264, 2pass, L4.1, 23,976 fps, 5565 Kbps
Аудио #1: 48 kHz, DD 5.1 - 384 kbps |Рус. Дубляж, iTunes|
Аудио #2: 48 kHz, DD 2.0 - 192 kbps |Укр. Дубляж, iTunes|
Аудио #3: 48 kHz, DD 5.1 - 640 kbps |Оригинал|
Субтитры: Rus (Надписи, Полные), Ukr (Надписи, Полные), Eng.
Подробные технические данные
Полное имя : The.Lego.Movie.2014.720p.BluRay.AC3.x264-CRiSC.Rus.Eng.mkvФормат : MatroskaВерсия формата : Version 4 / Version 2Размер файла : 4.76 GiBПродолжительность : 1h 40mnОбщий поток : 6 777 KbpsНазвание фильма : The Lego Movie (2014) | Rip by CRiSCДата кодирования : UTC 2014-06-01 13:47:37Программа кодирования : mkvmerge v6.5.0 ('Isn't she lovely') built on Oct 20 2013 12:50:05Библиотека кодирования : libebml v1.3.0 + libmatroska v1.4.1
VideoИдентификатор : 1Формат : AVCФормат/Информация : Advanced Video CodecПрофиль формата : High@L4.1Параметр CABAC формата : YesПараметр ReFrames формата : 12 framesИдентификатор кодека : V_MPEG4/ISO/AVCПродолжительность : 1h 40mnБитрейт : 5 565 KbpsШирина : 1 280 pixelsВысота : 534 pixelsСоотношение сторон : 2.40:1Режим частоты кадров : ConstantЧастота кадров : 23.976 fpsЦветовое пространство : YUVСубдискретизация насыщенности : 4:2:0Битовая глубина : 8 bitsТип развёртки : ProgressiveБит/(Пиксели*Кадры) : 0.340Размер потока : 3.81 GiB (80%)Заголовок : The Lego Movie (2014) by DjexБиблиотека кодирования : x264 core 125 r2200 999b753Настройки программы : cabac=1 / ref=12 / deblock=1:-3:-3 / analyse=0x3:0x133 / me=umh / subme=11 / psy=1 / psy_rd=1.00:0.00 / mixed_ref=1 / me_range=64 / chroma_me=1 / trellis=2 / 8x8dct=1 / cqm=0 / deadzone=21,11 / fast_pskip=0 / chroma_qp_offset=-2 / threads=12 / lookahead_threads=2 / sliced_threads=0 / nr=0 / decimate=1 / interlaced=0 / bluray_compat=0 / constrained_intra=0 / bframes=9 / b_pyramid=2 / b_adapt=2 / b_bias=0 / direct=3 / weightb=1 / open_gop=0 / weightp=2 / keyint=250 / keyint_min=24 / scenecut=40 / intra_refresh=0 / rc_lookahead=40 / rc=2pass / mbtree=0 / bitrate=5565 / ratetol=1.0 / qcomp=0.60 / qpmin=0 / qpmax=69 / qpstep=4 / cplxblur=20.0 / qblur=0.5 / vbv_maxrate=50000 / vbv_bufsize=62500 / nal_hrd=none / ip_ratio=1.40 / pb_ratio=1.40 / aq=1:0.70Язык : EnglishDefault : YesForced : No
Audio #1Идентификатор : 2Формат : AC-3Формат/Информация : Audio Coding 3Расширение режима : CM (complete main)Параметр Endianness формата : BigИдентификатор кодека : A_AC3Продолжительность : 1h 40mnВид битрейта : ConstantБитрейт : 384 KbpsКаналы : 6 channelsРасположение каналов : Front: L C R, Side: L R, LFEЧастота : 48.0 KHzБитовая глубина : 16 bitsМетод сжатия : LossyРазмер потока : 276 MiB (6%)Заголовок : DD 5.1 - 384 kbps |Дубляж, iTunes|Язык : RussianDefault : YesForced : No
Audio #2Идентификатор : 3Формат : AC-3Формат/Информация : Audio Coding 3Расширение режима : CM (complete main)Параметр Endianness формата : BigИдентификатор кодека : A_AC3Продолжительность : 1h 40mnВид битрейта : ConstantБитрейт : 192 KbpsКаналы : 2 channelsРасположение каналов : Front: L RЧастота : 48.0 KHzБитовая глубина : 16 bitsМетод сжатия : LossyРазмер потока : 138 MiB (3%)Заголовок : DD 2.0 - 192 kbps |Дубляж, iTunes|Язык : UkrainianDefault : NoForced : No
Audio #3Идентификатор : 4Формат : AC-3Формат/Информация : Audio Coding 3Расширение режима : CM (complete main)Параметр Endianness формата : BigИдентификатор кодека : A_AC3Продолжительность : 1h 40mnВид битрейта : ConstantБитрейт : 640 KbpsКаналы : 6 channelsРасположение каналов : Front: L C R, Side: L R, LFEЧастота : 48.0 KHzБитовая глубина : 16 bitsМетод сжатия : LossyРазмер потока : 460 MiB (9%)Заголовок : DD 5.1 - 640 kbps |Оригинал|Язык : EnglishDefault : NoForced : No
Text #1Идентификатор : 5Формат : UTF-8Идентификатор кодека : S_TEXT/UTF8Идентификатор кодека/Информация : UTF-8 Plain TextЗаголовок : Надписи и т.дЯзык : RussianDefault : YesForced : No
Text #2Идентификатор : 6Формат : UTF-8Идентификатор кодека : S_TEXT/UTF8Идентификатор кодека/Информация : UTF-8 Plain TextЗаголовок : ПолныеЯзык : RussianDefault : NoForced : No
Text #3Идентификатор : 7Формат : UTF-8Идентификатор кодека : S_TEXT/UTF8Идентификатор кодека/Информация : UTF-8 Plain TextЗаголовок : Надписи и т.дЯзык : UkrainianDefault : NoForced : No
Text #4Идентификатор : 8Формат : UTF-8Идентификатор кодека : S_TEXT/UTF8Идентификатор кодека/Информация : UTF-8 Plain TextЗаголовок : ПолныеЯзык : UkrainianDefault : NoForced : No
Text #5Идентификатор : 9Формат : UTF-8Идентификатор кодека : S_TEXT/UTF8Идентификатор кодека/Информация : UTF-8 Plain TextЯзык : EnglishDefault : NoForced : No
Menu00:00:00.000 : :00:00:00.00000:09:44.042 : :00:09:44.04200:18:18.389 : :00:18:18.38900:29:50.747 : :00:29:50.74700:38:48.034 : :00:38:48.03400:48:45.047 : :00:48:45.04700:57:49.424 : :00:57:49.42401:06:05.253 : :01:06:05.25301:16:24.205 : :01:16:24.20501:25:56.151 : :01:25:56.15101:32:57.322 : :01:32:57.322
Скриншоты
Source CRiSC BLOW



_________________
Показать сообщения:    

Текущее время: Сегодня 07:32

Часовой пояс: GMT



Вы не можете начинать темы
Вы не можете отвечать на сообщения
Вы не можете редактировать свои сообщения
Вы не можете удалять свои сообщения
Вы не можете голосовать в опросах
Вы не можете прикреплять файлы к сообщениям
Вы не можете скачивать файлы