Важное объявление!
У Нас Все раздачи мультитрекерные, при нуле пиров в релизах, можете смело вставать на закачку!
 
Автор Сообщение

HUNTER

Стаж:
4 года 4 месяца
Сообщений:
56722

Репутация: 101

[+] [-]
Вне форума [Профиль] [ЛС]

Лего супергерои DC: Лига справедливости против Лиги Бизарро
Lego DC Comics Super Heroes: Justice League vs. Bizarro League
-
Страна: США
Жанр: Комедия, приключения
Продолжительность: 00:48:43
Год выпуска: 2015
Перевод: Любительский (многоголосый закадровый) RuDub TV
Русские субтитры: есть
Режиссёр: Брэндон Виетти / Brandon Vietti
Роли озвучивали: Дидрих Бадер, Трой Бэйкер, Джон Ди Маджио, Том Кенни, Фил Моррис, Нолан Норт, Хари Пэйтон, Кевин Майкл Ричардсон, Джеймс Арнольд Тейлор, Тони Тодд-ОписаниеФантастический мультфильм, где роли главных персонажей играют фигурки мира Лего, расскажет о новой схватке Лиги Справедливости. Они будут противостоять Дарксайду. Этот злодей решил превратить планету Земля в куб. Но Дарксайд так же навредил миру, где проживала Лига Бизарро, в команде которой все герои, являются полной противоположностью Лиги Справедливости.-Релиз:

Сэмпл

IMDb: 5.80 (327)
Качество: BDRip 720p BDRemux 1080p -Azureus-
Формат: MKV
Видео: AVC 3428 Kbps 1280 x 720 (1.778) 23.976 fps
Аудио: AC-3 640 Kbps 6 channels, 48.0 KHz MVO RuDub TV
Аудио 2: AC-3 640 Kbps 6 channels, 48.0 KHz Eng
Субтитры: Rus, Eng, SRT

MI | Log

Log
x264 [info]: frame I:602 Avg QP:12.10 size:130594
x264 [info]: frame P:21497 Avg QP:14.39 size: 34078
x264 [info]: frame B:47982 Avg QP:17.60 size: 9913
x264 [info]: consecutive B-frames: 7.3% 9.0% 13.2% 43.0% 10.0% 10.1% 2.0% 2.9% 0.8% 0.9% 0.9%
x264 [info]: mb I I16..4: 11.1% 64.0% 24.9%
x264 [info]: mb P I16..4: 2.2% 14.5% 2.8% P16..4: 21.5% 23.3% 9.3% 2.1% 0.3% skip:24.0%
x264 [info]: mb B I16..4: 0.4% 1.8% 0.3% B16..8: 23.2% 14.0% 2.6% direct: 4.3% skip:53.4% L0:39.5% L1:46.4% BI:14.1%
x264 [info]: 8x8 transform intra:73.1% inter:55.2%
x264 [info]: direct mvs spatial:99.8% temporal:0.2%
x264 [info]: coded y,uvDC,uvAC intra: 75.9% 88.4% 74.9% inter: 13.7% 18.4% 8.9%
x264 [info]: i16 v,h,dc,p: 17% 13% 5% 65%
x264 [info]: i8 v,h,dc,ddl,ddr,vr,hd,vl,hu: 11% 16% 9% 8% 9% 9% 12% 10% 14%
x264 [info]: i4 v,h,dc,ddl,ddr,vr,hd,vl,hu: 12% 15% 9% 7% 14% 11% 12% 8% 11%
x264 [info]: i8c dc,h,v,p: 31% 29% 17% 22%
x264 [info]: Weighted P-Frames: Y:3.3% UV:2.9%
x264 [info]: ref P L0: 62.3% 7.7% 13.3% 4.8% 3.3% 2.8% 2.2% 1.5% 1.5% 0.5% 0.0%
x264 [info]: ref B L0: 79.5% 9.5% 4.1% 2.4% 1.7% 1.5% 0.9% 0.4%
x264 [info]: ref B L1: 94.5% 5.5%
x264 [info]: kb/s:3521.99
x264 [total]: encoded 70081 frames, 8.39 fps, 3521.99 kb/s, duration 2:19:15.53
Format                                   : MatroskaFormat version                           : Version 4 / Version 2File size                                : 1.63 GiBDuration                                 : 48mn 43sOverall bit rate                         : 4 803 KbpsEncoded date                             : UTC 2015-04-17 07:19:36Writing application                      : mkvmerge v6.7.0 ('Back to the Ground') 32bit built on Jan  8 2014 15:03:17Writing library                          : libebml v1.3.0 + libmatroska v1.4.1
VideoID : 1Format : AVCFormat/Info : Advanced Video CodecFormat profile : High@L4.1Format settings, CABAC : YesFormat settings, ReFrames : 9 framesCodec ID : V_MPEG4/ISO/AVCDuration : 48mn 43sBit rate : 3 428 KbpsWidth : 1 280 pixelsHeight : 720 pixelsDisplay aspect ratio : 16:9Frame rate mode : ConstantFrame rate : 23.976 fpsColor space : YUVChroma subsampling : 4:2:0Bit depth : 8 bitsScan type : ProgressiveBits/(Pixel*Frame) : 0.155Stream size : 1.17 GiB (71%)Title : Lego DC Comics Super Heroes: Justice League vs. Bizarro League 2015 [rutracker.org]Writing library : x264 core 146 r2538kMod 121396cEncoding settings : cabac=1 / ref=9 / deblock=1:-3:-2 / analyse=0x3:0x133 / me=umh / subme=11 / psy=1 / fade_compensate=0.00 / psy_rd=1.00:0.05 / mixed_ref=1 / me_range=32 / chroma_me=1 / trellis=2 / 8x8dct=1 / cqm=0 / deadzone=21,11 / fast_pskip=0 / chroma_qp_offset=-3 / threads=12 / lookahead_threads=3 / sliced_threads=0 / nr=0 / decimate=1 / interlaced=0 / bluray_compat=0 / constrained_intra=0 / fgo=0 / bframes=10 / b_pyramid=2 / b_adapt=2 / b_bias=0 / direct=3 / weightb=1 / open_gop=0 / weightp=2 / keyint=250 / keyint_min=23 / scenecut=40 / intra_refresh=0 / rc_lookahead=80 / rc=crf / mbtree=0 / crf=17.2000 / qcomp=0.60 / qpmin=0 / qpmax=69 / qpstep=4 / vbv_maxrate=50000 / vbv_bufsize=62500 / crf_max=0.0 / nal_hrd=none / filler=0 / ip_ratio=1.40 / pb_ratio=1.30 / aq=3:0.90Language : EnglishDefault : YesForced : No
Audio #1ID : 2Format : AC-3Format/Info : Audio Coding 3Mode extension : CM (complete main)Format settings, Endianness : BigCodec ID : A_AC3Duration : 48mn 43sBit rate mode : ConstantBit rate : 640 KbpsChannel(s) : 6 channelsChannel positions : Front: L C R, Side: L R, LFESampling rate : 48.0 KHzBit depth : 16 bitsCompression mode : LossyStream size : 223 MiB (13%)Title : MVO [RuDub TV]Language : RussianDefault : YesForced : No
Audio #2ID : 3Format : AC-3Format/Info : Audio Coding 3Mode extension : CM (complete main)Format settings, Endianness : BigCodec ID : A_AC3Duration : 48mn 43sBit rate mode : ConstantBit rate : 640 KbpsChannel(s) : 6 channelsChannel positions : Front: L C R, Side: L R, LFESampling rate : 48.0 KHzBit depth : 16 bitsCompression mode : LossyStream size : 223 MiB (13%)Title : OriginalLanguage : EnglishDefault : NoForced : No
Text #1ID : 4Format : UTF-8Codec ID : S_TEXT/UTF8Codec ID/Info : UTF-8 Plain TextTitle : FullLanguage : RussianDefault : NoForced : No
Text #2ID : 5Format : UTF-8Codec ID : S_TEXT/UTF8Codec ID/Info : UTF-8 Plain TextLanguage : EnglishDefault : NoForced : No
Menu00:00:00.000 : en:00:00:00.00000:09:46.169 : en:00:09:46.16900:19:46.602 : en:00:19:46.60200:29:24.096 : en:00:29:24.09600:39:10.765 : en:00:39:10.76500:45:57.380 : en:00:45:57.380

Скриншоты | Rip vs Source






Source

_________________
Показать сообщения:    

Текущее время: Сегодня 17:20

Часовой пояс: GMT



Вы не можете начинать темы
Вы не можете отвечать на сообщения
Вы не можете редактировать свои сообщения
Вы не можете удалять свои сообщения
Вы не можете голосовать в опросах
Вы не можете прикреплять файлы к сообщениям
Вы не можете скачивать файлы