Важное объявление!
У Нас Все раздачи мультитрекерные, при нуле пиров в релизах, можете смело вставать на закачку!
 
Автор Сообщение

HUNTER

Стаж:
4 года 4 месяца
Сообщений:
56809

Репутация: 101

[+] [-]
Вне форума [Профиль] [ЛС]

Легионеры / Иди Вперёд Или Умри / March Or Die
-Страна: Великобритания
Жанр: драма, мелодрама, приключения, военный
Год выпуска: 1977
Продолжительность: 01:42:22-Перевод 1: Профессиональный (многоголосый закадровый)
Перевод 2: Профессиональный (двухголосый закадровый) - Екатеринбург Арт-Оригинальная аудиодорожка: английский-Режиссер: Дик Ричардс / Dick Richards-В ролях: Джин Хэкмен, Теренс Хилл, Катрин Денёв, Макс Фон Сюдов, Иэн Холм, Джек О'Хэллоран, Рюфюс, Марсель Боззюффи, Андре Пенверн, Пол Шерман-Описание:
Подразделение Французского Иностранного легиона получает приказ охранять археологическую экспедицию, которая отправляется в Марокканскую пустыню продолжить поиски бесценной арабской гробницы. Первая экспедиция была уничтожена кочевниками. Вождь кочевников Эль Крим считает, что гробница должна принадлежать его племени, как символ свободы, и готов насмерть сражаться с легионерами за обладание древней святыней.-Доп. информация: за блюрик спасибо igor nisan-Сэмпл: Скачать-Тип релиза: BDRemux 1080i
Контейнер: MKV-Видео: MPEG-4 AVC Video; 24985 kbps; 1080i; 25.000 fps; 16:9; High Profile 4.1
Аудио 1: Russian; AC3; 48.0 KHz; 2ch; 192 Kbps MVO
Аудио 2: Russian; AC3; 48.0 KHz; 2ch; 192 Kbps DVO
Аудио 3: English; AC3; 48.0 KHz; 2ch; 256 Kbps

MediaInfo

Format : Matroska
Format version : Version 4 / Version 2
File size : 18.3 GiB
Duration : 1h 42mn
Overall bit rate mode : Variable
Overall bit rate : 25.6 Mbps
Encoded date : UTC 2016-09-29 13:08:41
Writing application : mkvmerge v8.3.0 ('Over the Horizon') 64bit
Writing library : libebml v1.3.1 + libmatroska v1.4.2
Attachments : poster.jpg
Video
ID : 1
Format : AVC
Format/Info : Advanced Video Codec
Format profile : High@L4.1
Format settings, CABAC : Yes
Format settings, ReFrames : 4 frames
Codec ID : V_MPEG4/ISO/AVC
Duration : 1h 42mn
Bit rate mode : Variable
Bit rate : 25.0 Mbps
Maximum bit rate : 30.0 Mbps
Width : 1 920 pixels
Height : 1 080 pixels
Display aspect ratio : 16:9
Frame rate mode : Variable
Frame rate : 50.000 fps
Original frame rate : 25.000 fps
Standard : PAL
Color space : YUV
Chroma subsampling : 4:2:0
Bit depth : 8 bits
Scan type : Interlaced
Scan type, store method : Separated fields
Scan order : Top Field First
Bits/(Pixel*Frame) : 0.241
Stream size : 17.9 GiB (97%)
Default : Yes
Forced : No
Color range : Limited
Color primaries : BT.709
Transfer characteristics : BT.709
Matrix coefficients : BT.709
Audio #1
ID : 2
Format : AC-3
Format/Info : Audio Coding 3
Mode extension : CM (complete main)
Format settings, Endianness : Big
Codec ID : A_AC3
Duration : 1h 42mn
Bit rate mode : Constant
Bit rate : 192 Kbps
Channel(s) : 2 channels
Channel positions : Front: L R
Sampling rate : 48.0 KHz
Frame rate : 31.250 fps (1536 spf)
Compression mode : Lossy
Stream size : 141 MiB (1%)
Title : MVO
Language : Russian
Default : Yes
Forced : No
Audio #2
ID : 3
Format : AC-3
Format/Info : Audio Coding 3
Mode extension : CM (complete main)
Format settings, Endianness : Big
Codec ID : A_AC3
Duration : 1h 42mn
Bit rate mode : Constant
Bit rate : 192 Kbps
Channel(s) : 2 channels
Channel positions : Front: L R
Sampling rate : 48.0 KHz
Frame rate : 31.250 fps (1536 spf)
Compression mode : Lossy
Stream size : 141 MiB (1%)
Title : DVO Екатеринбург Арт
Language : Russian
Default : No
Forced : No
Audio #3
ID : 4
Format : AC-3
Format/Info : Audio Coding 3
Mode extension : CM (complete main)
Format settings, Endianness : Big
Codec ID : A_AC3
Duration : 1h 42mn
Bit rate mode : Constant
Bit rate : 256 Kbps
Channel(s) : 2 channels
Channel positions : Front: L R
Sampling rate : 48.0 KHz
Frame rate : 31.250 fps (1536 spf)
Compression mode : Lossy
Stream size : 187 MiB (1%)
Language : English
Default : No
Forced : No

Скриншоты


_________________
Показать сообщения:    

Текущее время: Сегодня 19:31

Часовой пояс: GMT



Вы не можете начинать темы
Вы не можете отвечать на сообщения
Вы не можете редактировать свои сообщения
Вы не можете удалять свои сообщения
Вы не можете голосовать в опросах
Вы не можете прикреплять файлы к сообщениям
Вы не можете скачивать файлы