Важное объявление!
У Нас Все раздачи мультитрекерные, при нуле пиров в релизах, можете смело вставать на закачку!
 
Автор Сообщение

HUNTER

Стаж:
4 года 4 месяца
Сообщений:
56790

Репутация: 101

[+] [-]
Вне форума [Профиль] [ЛС]

Левая рука Бога / The Left Hand of God
Страна: США
Жанр: драма
Год выпуска: 1955
Продолжительность: 01:27:28
Перевод: Профессиональный (многоголосый закадровый) - Первый канал
Cубтитры: английские
Оригинальная аудиодорожка: английский
Режиссер: Эдвард Дмытрык / Edward Dmytryk
В ролях: Хамфри Богарт, Джин Тирни, Ли Дж. Кобб, Агнес Мурхед, Э. Г. Маршалл, Джин Портер, Карл Бентон Рейд, Виктор Сен Юнг, Филип Ан, Бенсон Фонг
Описание: В 1947 году в Главную провинцию Китая прибывает с католической миссией святой отец О’Ши. Миссия близка к закрытию, жителей окрестных деревень интересуют гражданские распри, а не религия.
Да и сам священник как будто не спешит приступать к своим непосредственным обязанностям: куда больше его волнует военная вдова — красавица-медсестра Энн. Однако постепенно странные проповеди О’Ши поворачивают местное население в сторону католицизма. А его дружба с Энн приобретает совсем «несвященнический» характер…
Доп. информация:


За дорожку с переводом спасибо edich2
Сэмпл: http://sendfile.su/1049146
Тип релиза: WEB-DL 720p
Контейнер: MKV
Видео: AVC, 1280x500, L3.1, 23.976fps, 4026kbps
Аудио 1: Russian: AC3, 48000Hz, 2ch, 192kbps
Аудио 2: English: AC3, 48000Hz, 2ch, 224kbps - DVD
Аудио 3: English: AAC, 48000Hz, 2ch, 165kbps - WEB-DL
Формат субтитров: softsub (SRT)

MediaInfo

Общее
Уникальный идентификатор : 204520542434042085257945312259133191931 (0x99DD3943DA5C6BF8ABA6F2CCEFF8B6FB)
Полное имя : T:\The Left Hand of God (WEB-DL 720p).mkv
Формат : Matroska
Версия формата : Version 4 / Version 2
Размер файла : 2,81 Гбайт
Продолжительность : 1 ч. 27 м.
Общий поток : 4607 Кбит/сек
Дата кодирования : UTC 2014-11-16 07:41:29
Программа кодирования : mkvmerge v6.9.1 ('Blue Panther') 64bit built on Apr 18 2014 18:23:38
Библиотека кодирования : libebml v1.3.0 + libmatroska v1.4.1
Видео
Идентификатор : 1
Формат : AVC
Формат/Информация : Advanced Video Codec
Профиль формата : Main@L3.1
Параметр CABAC формата : Нет
Параметр ReFrames формата : 2 кадра
Идентификатор кодека : V_MPEG4/ISO/AVC
Продолжительность : 1 ч. 27 м.
Ширина : 1280 пикселей
Высота : 500 пикселей
Соотношение сторон : 2,560
Режим частоты кадров : Постоянный
Частота кадров : 23,976 кадра/сек
Цветовое пространство : YUV
Субдискретизация насыщенности : 4:2:0
Битовая глубина : 8 бит
Тип развёртки : Прогрессивная
Язык : English
Default : Да
Forced : Нет
Основные цвета : BT.709
Характеристики трансфера : BT.709
Коэффициенты матрицы : BT.709
Аудио #1
Идентификатор : 2
Формат : AC-3
Формат/Информация : Audio Coding 3
Расширение режима : CM (complete main)
Параметр Endianness формата : Big
Идентификатор кодека : A_AC3
Продолжительность : 1 ч. 27 м.
Вид битрейта : Постоянный
Битрейт : 192 Кбит/сек
Каналы : 2 канала
Расположение каналов : Front: L R
Частота : 48,0 КГц
Битовая глубина : 16 бит
Метод сжатия : С потерями
Размер потока : 120 Мбайт (4%)
Заголовок : Первый канал
Язык : Russian
Default : Да
Forced : Нет
Аудио #2
Идентификатор : 3
Формат : AC-3
Формат/Информация : Audio Coding 3
Расширение режима : CM (complete main)
Параметр Endianness формата : Big
Идентификатор кодека : A_AC3
Продолжительность : 1 ч. 27 м.
Вид битрейта : Постоянный
Битрейт : 224 Кбит/сек
Каналы : 2 канала
Расположение каналов : Front: L R
Частота : 48,0 КГц
Битовая глубина : 16 бит
Метод сжатия : С потерями
Размер потока : 140 Мбайт (5%)
Заголовок : DVD
Язык : English
Default : Нет
Forced : Нет
Аудио #3
Идентификатор : 4
Формат : AAC
Формат/Информация : Advanced Audio Codec
Профиль формата : LC
Идентификатор кодека : A_AAC
Продолжительность : 1 ч. 27 м.
Каналы : 2 канала
Расположение каналов : Front: L R
Частота : 48,0 КГц
Метод сжатия : С потерями
Заголовок : WEB-DL
Язык : English
Default : Нет
Forced : Нет
Текст
Идентификатор : 5
Формат : UTF-8
Идентификатор кодека : S_TEXT/UTF8
Идентификатор кодека/Информация : UTF-8 Plain Text
Язык : English
Default : Нет
Forced : Нет
Меню
00:00:00.000 : en:Main Titles
00:01:36.000 : en:Unable to Walk on Water
00:04:50.000 : en:A Man's Faith
00:08:17.000 : en:John Wong's List
00:10:07.000 : en:Close This Mission!
00:13:29.000 : en:Among the Flock
00:17:30.000 : en:No Mass on Sunday
00:19:29.000 : en:A Priest, Not a Man
00:21:15.000 : en:In Their Language
00:22:29.000 : en:God's Servants
00:28:09.000 : en:Different Trinities, Same Objective
00:30:14.000 : en:Never Having to Walk Away
00:35:22.000 : en:About Anne
00:37:57.000 : en:My Old Kentucky Home
00:39:08.000 : en:Another Time, Another Place
00:41:46.000 : en:Speaking Frankly
00:45:09.000 : en:The Counterfeit Priest
00:54:19.000 : en:When the Masquerade Ends
00:57:36.000 : en:Protecting His Neck
00:59:36.000 : en:Trust Me!
01:02:43.000 : en:Sincere Supplication
01:04:19.000 : en:All or Nothing
01:15:35.000 : en:The Sin of Love
01:19:18.000 : en:The People's Priest

Скриншоты


_________________
Показать сообщения:    

Текущее время: Сегодня 11:05

Часовой пояс: GMT



Вы не можете начинать темы
Вы не можете отвечать на сообщения
Вы не можете редактировать свои сообщения
Вы не можете удалять свои сообщения
Вы не можете голосовать в опросах
Вы не можете прикреплять файлы к сообщениям
Вы не можете скачивать файлы