Важное объявление!
У Нас Все раздачи мультитрекерные, при нуле пиров в релизах, можете смело вставать на закачку!
 
Автор Сообщение

HUNTER

Стаж:
4 года 4 месяца
Сообщений:
56790

Репутация: 101

[+] [-]
Вне форума [Профиль] [ЛС]

-
Год выпуска: 2009
Страна: Япония
Жанр: комедия, музыкальный
Продолжительность: ТВ-сериал, 12 эп. по 24 мин. + 9 спешлов
Выпуск: c 03.04.2009 по 19.06.2009-Перевод:
  • русские субтитры от Mi-ki & Матадор (полные/вспомогательные)
-Режиссер: Ямада Наоко
Студия: Kyoto Animation-Описание:
Милая, искренняя и неуклюжая Юй Хирасава счастлива, что поступила в старшую школу. Теперь настало время проявить себя, найти друзей, повзрослеть и избавиться от детских комплексов, найдя клуб по душе и раскрыв неведомые таланты! Хм, а какие у Юй таланты? Ей самой пока неясно…
Тем временем гиперактивная Рицу Тайнака с подругой детства Мио Акиямой изо всех сил пытаются сохранить школьный клуб легкой музыки, лишившийся всех своих членов. Задача проста – набрать четверых до конца апреля, первого месяца учебы. Бесценной находкой стала «заглянувшая на огонек» Цумуги Котобуки – богатая наследница и настоящая «принцесса». Теперь давняя мечта Рицу создать свою группу почти сбылась: ведь сама она владеет ударными, Мио – басист, а пианистка-виртуоз Цумуги может встать за клавишные. Но время близится, а последней, четвертой девушки, все нет! Кто же возьмет гитару и станет душой компании? Конечно же, малышка Юй! Не беда, что гитару она в руках не держала – было бы желание… Вот так возродился клуб легкой музыки (по-японски кэйон-гаку), за становлением и развитием которого мы будем неустанно следить этой весной!
© Hollow, World Art
В этом музыкальном аниме почти все персонажи носят «музыкальные» фамилии. Четыре главные героини названы в честь членов известной японской техно-поп группы P-model и занимают в ансамбле те же позиции, что и их «оригиналы». Второстепенные героини (Яманака-сэнсэй и Нодока Манабэ) названы в честь членов еще более известной рок-группы The Pillows.-Информационные ссылки: AniDB || World Art || MAL-Качество: BDRip
Энкод: Winter - RG Pantheon
Тип видео: без хардсаба, без линковки
Формат: mkv
Видео: x264 (Hi10p), 1280x720, ~3000 Kbps, 23.976 fps
Аудио JAP: Vorbis, 48000Hz, ~256 Kbps, 2ch
Аудио RUS 1: AC3, 48000Hz, ~448 Kbps, 2ch (внешними файлами)
Аудио RUS 2-4: AC3, 48000Hz, ~192 Kbps, 2ch (внешними файлами)-

Список озвучек в раздаче

  • одноголосая (муж.) от JeFerSon (Opendub)
  • одноголосая (муж.) от Ancord (AniDub)
  • многоголосая от MCA [1-12]
    (участники: Keneretta, deneb, Vaily, Gera, Tasha, Oliva, Little_Polka, Yuuhi, Kasumi, Valkrist)

  • многоголосая от Animedia [1-9]
    (участники: Eladiel, Say, Silv, Tinda & Lupin [1-7], Eladiel, Say, Silv, Lupin [8-9])

Список эпизодов

01. Abolished Club!
02. Instrument!
03. Special Training!
04. Training Camp!
05. Advisor!
06. School Festival!
07. Christmas!
08. New Member!
09. Newly-entered Member!
10. Rooming Together Again!
11. Pinch!
12. Light Music!
13 (S1). Extra Episode: A Winter Day!
14 (S2). Extra Episode: Live House!
S3. Yui`s Curiosity Series
S4. Ricchan`s Kodac Moment Series
S5. Mio`s Panties
S6. Little Yui-chan
S7. K-ON`s Uninhabited Island Series
S8. Animal Series
S9. Winter Chapter

Скриншоты


Подробные тех. данные

Общее
Уникальный идентификатор : 194316098093217488141680848121282382474 (0x922FEB50A73DDAD4BE730798231B4A8A)
Полное имя : Z:\Anime\720p\K-On! [BD] [720p]\[Winter] K-On! 13 [BDrip 1280x720 x264 Vorbis].mkv
Формат : Matroska
Версия формата : Version 2
Размер файла : 538 Мбайт
Продолжительность : 24 м.
Режим общего битрейта : Переменный
Общий поток : 3107 Кбит/сек
Дата кодирования : UTC 2014-01-04 08:16:06
Программа кодирования : mkvmerge v2.9.8 ('C'est le bon') built on Aug 13 2009 12:49:06
Библиотека кодирования : libebml v0.7.7 + libmatroska v0.8.1
Видео
Идентификатор : 1
Формат : AVC
Формат/Информация : Advanced Video Codec
Профиль формата : High 10@L4.1
Параметр CABAC формата : Да
Параметр ReFrames формата : 9 кадров
Идентификатор кодека : V_MPEG4/ISO/AVC
Продолжительность : 24 м.
Битрейт : 2789 Кбит/сек
Ширина : 1280 пикселей
Высота : 720 пикселей
Соотношение сторон : 16:9
Режим частоты кадров : Постоянный
Частота кадров : 23,976 кадра/сек
Цветовое пространство : YUV
Субдискретизация насыщенности : 4:2:0
Битовая глубина : 10 бит
Тип развёртки : Прогрессивная
Бит/(Пиксели*Кадры) : 0.126
Размер потока : 483 Мбайт (90%)
Библиотека кодирования : x264 core 132 r2309 3b1f1f7
Настройки программы : cabac=1 / ref=9 / deblock=1:-2:-2 / analyse=0x3:0x133 / me=umh / subme=9 / psy=1 / psy_rd=0.90:0.00 / mixed_ref=1 / me_range=24 / chroma_me=1 / trellis=2 / 8x8dct=1 / cqm=0 / deadzone=21,11 / fast_pskip=1 / chroma_qp_offset=-2 / threads=6 / lookahead_threads=1 / sliced_threads=0 / nr=0 / decimate=0 / interlaced=0 / bluray_compat=0 / constrained_intra=0 / bframes=8 / b_pyramid=2 / b_adapt=2 / b_bias=0 / direct=1 / weightb=1 / open_gop=0 / weightp=2 / keyint=250 / keyint_min=23 / scenecut=40 / intra_refresh=0 / rc=crf / mbtree=0 / crf=15.0 / qcomp=0.70 / qpmin=9 / qpmax=42 / qpstep=4 / ip_ratio=1.40 / pb_ratio=1.30 / aq=1:0.90 / zones=2900,5053,b=1.3
Default : Нет
Forced : Нет
Аудио
Идентификатор : 2
Формат : Vorbis
Параметр Floor формата : 1
Идентификатор кодека : A_VORBIS
Продолжительность : 24 м.
Вид битрейта : Переменный
Битрейт : 256 Кбит/сек
Каналы : 2 канала
Частота : 48,0 КГц
Метод сжатия : С потерями
Размер потока : 44,3 Мбайт (8%)
Библиотека кодирования : libVorbis (Omnipresent) (20120203 (Omnipresent))
Язык : Japanese
Default : Да
Forced : Нет
- -

Информация о релизе

  • Выбор видео, перевода, озвучки, а также типа сборки материала осуществляется релизером и не подлежит обсуждению. Если вы считаете, что раздаваемый материал противоречит правилам раздела "Аниме" rutracker.org, сообщите об этом одному из модераторов раздела.
  • В случае появления нового материала или же лучшего по качеству материала релизер оставляет за собой право обновить раздачу. В этом случае вам необходимо ознакомиться с изменениями (добавлениями) и перекачать торрент.
  • Данный релиз предназначен для просмотра на ПК. Воспроизведение на иных проигрывателях не гарантируется. Для просмотра рекомендуется Media Player Classic с установленным пакетом кодеков K-Lite.
  • Данный релиз содержит 10-битное видео (Hi10p). Для корректного воспроизведения обязательно используйте кодеки, поддерживающие 10-битное видео.
    Обсудить частные случаи проблем с воспроизведением и получить дополнительную информацию можно здесь.

  • Данный релиз предназначен для просмотра с внешними субтитрами и внешними звуковыми дорожками.
    • Для просмотра с внешней звуковой дорожкой нужно:
      перекинуть файлы .mka из папки "RUS Sound [<автор(ы) озвучки>]" в одну папку с видео и переключить звуковую дорожку в плеере при просмотре. Как это сделать в разных плеерах подробно описано здесь.

    • Для просмотра с субтитрами нужно:
      перекинуть файлы .ass из папки "RUS Subtitles [<автор(ы) перевода>]" в одну папку с видео - плеер подгрузит их автоматически при открытии видео.
  • Если у вас возникли проблемы с просмотром, не связанные с описанным выше, сообщите о них автору раздачи посредством сообщения в теме или ЛС Aglenn.

_________________
Показать сообщения:    

Текущее время: Сегодня 12:59

Часовой пояс: GMT



Вы не можете начинать темы
Вы не можете отвечать на сообщения
Вы не можете редактировать свои сообщения
Вы не можете удалять свои сообщения
Вы не можете голосовать в опросах
Вы не можете прикреплять файлы к сообщениям
Вы не можете скачивать файлы