Важное объявление!
У Нас Все раздачи мультитрекерные, при нуле пиров в релизах, можете смело вставать на закачку!
 
Автор Сообщение

HUNTER

Стаж:
4 года 4 месяца
Сообщений:
56848

Репутация: 101

[+] [-]
Вне форума [Профиль] [ЛС]

Кыз-Жибек
Страна: СССР
Студия: КазахФильм
Жанр: Драма
Год выпуска: 1971
Продолжительность: 02.17.48
Перевод: Профессиональный (дублированный)
Cубтитры: нет
Оригинальная аудиодорожка: Казахский
Режиссер: Султан Ходжиков
В ролях: Меруерт Утекешева, Куман Тастанбеков, Асанали Ашимов, Кененбай Кожабеков, Гульфайрус Исмаилова, Фарида Шарипова, Идрис Ногайбаев, Каукен Кенжетаев, Сабира Майканова, Анвар Молдабеков
Описание: Фильм снят по казахскому эпосу «Кыз Жибек».
kinopoisk.ru
https://ru.wikipedia.org/wiki/Кыз_Жибек
Меню: Статичное, озвученное
Сэмпл
Тип релиза: DVD5 (лицензия)
Контейнер: DVD-Video
Видео: PAL
Аудио: Русский (киностудия им. М. Горького), AC-3, 192 Kbps, 2 channels, 48.0 KHz
Аудио 2: Казахский, AC-3, 192 Kbps, 2 channels, 48.0 KHz

MediaInfo

DVDInfo
Title: Кыз-Жибек (Султан Ходжиков) [1971]
Size: 4.36 Gb ( 4 571 138,00 KBytes ) - DVD-5
Enabled regions: 1, 2, 3, 4, 5, 6, 7, 8
VTS_01 :
Play Length: 00:00:37
Video: PAL 16:9 (720x576) VBR, Auto Letterboxed
Audio:
Not specified (Dolby AC3, 2 ch)
VTS_02 :
Play Length: 01:07:01+{01:07:01}
Video: PAL 16:9 (720x576) VBR, Auto Letterboxed
Audio:
Kazakh (Dolby AC3, 2 ch)
Russian (Dolby AC3, 2 ch)
VTS_03 :
Play Length: 01:10:47+{01:10:47}
Video: PAL 16:9 (720x576) VBR, Auto Letterboxed
Audio:
Kazakh (Dolby AC3, 2 ch)
Russian (Dolby AC3, 2 ch)
* Menus Information *
VIDEO_TS Menu
Video:
PAL 4:3 (720x576) VBR
Audio:
Not specified (LinearPCM, 2 ch)
English Language Unit :
Title Menu
VTS_01 Menu
Video:
PAL 4:3 (720x576) VBR
Audio:
Not specified (Dolby AC3, 2 ch)
English Language Unit :
Root Menu
Chapter (PTT) Menu
VTS_02 Menu
Video:
NTSC 4:3 (720x480) VBR
Auto Pan&Scan, Auto Letterboxed
English Language Unit :
Root Menu
Chapter (PTT) Menu
VTS_03 Menu
Video:
NTSC 4:3 (720x480) VBR
Auto Pan&Scan, Auto Letterboxed
English Language Unit :
Root Menu
Chapter (PTT) Menu
Медиа-инфо:
General
Complete name : F:\Кыз-Жибек (Султан Ходжиков) [1971]\VIDEO_TS\VTS_02_1.VOB
Format : MPEG-PS
File size : 1 024 MiB
Duration : 31mn 45s
Overall bit rate mode : Variable
Overall bit rate : 4 509 Kbps
Video
ID : 224 (0xE0)
Format : MPEG Video
Format version : Version 2
Format profile : Main@Main
Format settings, BVOP : Yes
Format settings, Matrix : Default
Format settings, GOP : M=3, N=12
Duration : 31mn 45s
Bit rate mode : Variable
Bit rate : 4 035 Kbps
Maximum bit rate : 6 000 Kbps
Width : 720 pixels
Height : 576 pixels
Display aspect ratio : 16:9
Frame rate : 25.000 fps
Standard : PAL
Color space : YUV
Chroma subsampling : 4:2:0
Bit depth : 8 bits
Scan type : Interlaced
Scan order : Bottom Field First
Compression mode : Lossy
Bits/(Pixel*Frame) : 0.389
Time code of first frame : 00:00:00:00
Time code source : Group of pictures header
Stream size : 916 MiB (89%)
Audio #1
ID : 189 (0xBD)-128 (0x80)
Format : AC-3
Format/Info : Audio Coding 3
Mode extension : CM (complete main)
Format settings, Endianness : Big
Muxing mode : DVD-Video
Duration : 31mn 44s
Bit rate mode : Constant
Bit rate : 192 Kbps
Channel(s) : 2 channels
Channel positions : Front: L R
Sampling rate : 48.0 KHz
Bit depth : 16 bits
Compression mode : Lossy
Stream size : 43.6 MiB (4%)
Audio #2
ID : 189 (0xBD)-129 (0x81)
Format : AC-3
Format/Info : Audio Coding 3
Mode extension : CM (complete main)
Format settings, Endianness : Big
Muxing mode : DVD-Video
Duration : 31mn 44s
Bit rate mode : Constant
Bit rate : 192 Kbps
Channel(s) : 2 channels
Channel positions : Front: L R
Sampling rate : 48.0 KHz
Bit depth : 16 bits
Compression mode : Lossy
Stream size : 43.6 MiB (4%)
Menu

Скриншоты меню


Скриншоты





_________________
Показать сообщения:    

Текущее время: Сегодня 01:47

Часовой пояс: GMT



Вы не можете начинать темы
Вы не можете отвечать на сообщения
Вы не можете редактировать свои сообщения
Вы не можете удалять свои сообщения
Вы не можете голосовать в опросах
Вы не можете прикреплять файлы к сообщениям
Вы не можете скачивать файлы
Наши партнеры: интернет магазин Ивановского трикотажа textilla.ru