Важное объявление!
У Нас Все раздачи мультитрекерные, при нуле пиров в релизах, можете смело вставать на закачку!
 
Автор Сообщение

HUNTER

Стаж:
4 года 4 месяца
Сообщений:
56772

Репутация: 101

[+] [-]
Вне форума [Профиль] [ЛС]

Курт звереет / Kurt blir grusom
Страна: Норвегия, Дания
Жанр: Комедия
Продолжительность: 01:10:49
Год выпуска: 2008
Перевод: Одноголосый закадровый (Max Nabokov)
Русские субтитры: нет
Режиссёр: Расмус А. Сивертсен / Rasmus A. Sivertsen
Роли озвучивали: Атле Энтонсен, Кристин Скогейм, Аксель Хенни, Пернилла Соренсен, Йон Ойгарден...
Описание: Мультфильм «Курт звереет» (2008 г.) основан на нескольких произведениях автора сказок о Курте, Эрленда Лу, повествующих о жизни скромного портового грузчика и его большой, разношёрстной семьи.
Семья в каком-то смысле классическая: все такие разные, и всё-таки они вместе. В размеренное существование Курта, его жены-архитектора, малыша Бада, тощего старшего сына мечтающего стать консерватором и контрастно-огромной, готичной дочери врывается сосед, похожий на Николая Баскова, — и этим всё сказано. Он работает врачом и гребёт деньги лопатой, а на его новоселье приезжает грудь премьер-министра (конечно, вместе с премьер-министром, но это уже не так важно).
Естественно, Курт сразу понимает, что за соседским забором трава зеленее, шевелюра у доктора более привлекательнее и вообще надо срочно всем что-то доказать. C этого момента разворачивается история, которая наглядно показывает нам, что деньги развращают, а обманывать нехорошо. Кроме того, мы узнаём, что «портовой грузчик» — это звучит гораздо более гордо, чем «подлый доктор» или «грудастый премьер-министр», если этот портовой грузчик честно делает свою работу и не хулиганит.
Доп. информация: 12 +
Семпл: http://multi-up.com/1033008
Качество: DVDRip
Формат: AVI
Видео: 720x384 (1.88:1), 25 fps, DivX Codec 4.x ~2120 kbps avg, 0.31 bit/pixel
Аудио: #1: 48 kHz, AC3 Dolby Digital, 3/2 (L,C,R,l,r) + LFE ch, ~384.00 kbps avg (рус)
Аудио: #2: 48 kHz, AC3 Dolby Digital, 3/2 (L,C,R,l,r) + LFE ch, ~384.00 kbps avg (нор)

Подробные технические данные

GeneralComplete name : E:\MOVIE\Kurt blir grusom (Max Nabokov).aviFormat : AVIFormat/Info : Audio Video InterleaveFile size : 1.44 GiBDuration : 1h 10mnOverall bit rate : 2 904 KbpsWriting application : VirtualDubMod 1.5.10.2 (build 2540/release)Writing library : VirtualDubMod build 2540/release
VideoID : 0Format : MPEG-4 VisualFormat profile : Simple@L1Format settings, BVOP : NoFormat settings, QPel : NoFormat settings, GMC : No warppointsFormat settings, Matrix : Default (H.263)Codec ID : DIVXCodec ID/Info : Project MayoCodec ID/Hint : DivX 4Duration : 1h 10mnBit rate : 2 121 KbpsWidth : 720 pixelsHeight : 384 pixelsDisplay aspect ratio : 1.85:1Frame rate : 25.000 fpsColor space : YUVChroma subsampling : 4:2:0Bit depth : 8 bitsScan type : ProgressiveCompression mode : LossyBits/(Pixel*Frame) : 0.307Stream size : 1.05 GiB (73%)Writing library : Lavc53.33.0
Audio #1ID : 1Format : AC-3Format/Info : Audio Coding 3Mode extension : CM (complete main)Format settings, Endianness : BigCodec ID : 2000Duration : 1h 10mnBit rate mode : ConstantBit rate : 384 KbpsChannel(s) : 6 channelsChannel positions : Front: L C R, Side: L R, LFESampling rate : 48.0 KHzBit depth : 16 bitsCompression mode : LossyStream size : 195 MiB (13%)Alignment : Split accross interleavesInterleave, duration : 40 ms (1.00 video frame)Interleave, preload duration : 500 ms
Audio #2ID : 2Format : AC-3Format/Info : Audio Coding 3Mode extension : CM (complete main)Format settings, Endianness : BigCodec ID : 2000Duration : 1h 10mnBit rate mode : ConstantBit rate : 384 KbpsChannel(s) : 6 channelsChannel positions : Front: L C R, Side: L R, LFESampling rate : 48.0 KHzBit depth : 16 bitsCompression mode : LossyStream size : 195 MiB (13%)Alignment : Split accross interleavesInterleave, duration : 40 ms (1.00 video frame)Interleave, preload duration : 500 ms

Скриншоты




_________________
Показать сообщения:    

Текущее время: Сегодня 12:47

Часовой пояс: GMT



Вы не можете начинать темы
Вы не можете отвечать на сообщения
Вы не можете редактировать свои сообщения
Вы не можете удалять свои сообщения
Вы не можете голосовать в опросах
Вы не можете прикреплять файлы к сообщениям
Вы не можете скачивать файлы