Важное объявление!
У Нас Все раздачи мультитрекерные, при нуле пиров в релизах, можете смело вставать на закачку!
 
Автор Сообщение

HUNTER

Стаж:
4 года 4 месяца
Сообщений:
56809

Репутация: 101

[+] [-]
Вне форума [Профиль] [ЛС]

Курск - 1943. Встречный бой
Год выпуска: 2013
Страна: Россия
Жанр: Документальный
Продолжительность: 00:38:58
Перевод: Не требуется
Русские субтитры: нет
Автор и ведущий: Леонид Млечин
Режиссер: Екатерина Гальперина
Описание: Весной 1943 года немецкие генералы планировали покушение на Гитлера, но не решились осуществить свои замыслы. Очень скоро они об этом пожалели - во время сражения на Курской дуге. После Сталинграда они уже понимали, что выиграть войну невозможно. Но надеялись вынудить Москву подписать мир на условиях возвращения к границам, которые существовали 22 июня сорок первого.
План вермахта был таков: "Нанести Красной армии мощные удары на отдельных участках, в результате которых она понесла бы значительные потери, особенно пленными, что могло бы привести, по крайней мере, к ничейному исходу войны".
Целью первого удара стала Курская дуга. В результате длительных боёв на линии фронта образовался выступ, который врезался в расположение немецких войск на глубину в двести километров. Он представлял угрозу флангам и тылам группы армий "Центр" и группы армий "Юг"". Но одновременно Курский выступ казался самым уязвимым звеном советской обороны. Части вермахта охватывали его с трёх сторон. Возникла идея - срезать выступ...
Курская битва продолжалась пятьдесят дней и ночей. 5 августа 1943 года в Москве раздались залпы первого салюта - в честь освобождения Орла и Белгорода.
Как же сложились судьбы непосредственных участников этой битвы? Почему перед смертью один из немецких заговорщиков генерал-фельдмаршал Гюнтер фон Клюге признавался в любви к Гитлеру, а другим генералом-фельдмаршалом Эрихом фон Манштейном заинтересовалось гестапо? Как погиб Николай Фёдорович Ватутин? С какой целью маршал Иван Степанович Конев не поддержал Георгия Константиновича Жукова? Почему маршал Рокоссовский не стал министром обороны, хотя заслуживал этой должности и даже вошёл в историю полководцем Победы? Об этом и многом другом - фильм Леонида Млечина.

качество: SATRip
формат: AVI
Видео: Xvid 720x528 (4:3) 25.0 fps Bit rate 1500Kbps Bits/(Pixel*Frame) 0.158
Аудио: MP3 48.0 KHz 2ch 160kbps

MediaInfo

General
Complete name : E:\torrent\Курск - 1943. Встречный бой.avi
Format : AVI
Format/Info : Audio Video Interleave
File size : 465 MiB
Duration : 38mn 58s
Overall bit rate : 1 669 Kbps
Writing library : VirtualDub build 32842/release
Video
ID : 0
Format : MPEG-4 Visual
Format profile : Advanced Simple@L5
Format settings, BVOP : Yes
Format settings, QPel : No
Format settings, GMC : No warppoints
Format settings, Matrix : Default (H.263)
Codec ID : XVID
Codec ID/Hint : XviD
Duration : 38mn 58s
Bit rate : 1 500 Kbps
Width : 720 pixels
Height : 528 pixels
Display aspect ratio : 4:3
Frame rate : 25.000 fps
Color space : YUV
Chroma subsampling : 4:2:0
Bit depth : 8 bits
Scan type : Progressive
Bits/(Pixel*Frame) : 0.158
Stream size : 418 MiB (90%)
Writing library : XviD 1.2.1 (UTC 2008-12-04)
Audio
ID : 1
Format : MPEG Audio
Format version : Version 1
Format profile : Layer 3
Mode : Joint stereo
Codec ID : 55
Codec ID/Hint : MP3
Duration : 38mn 58s
Bit rate mode : Constant
Bit rate : 160 Kbps
Channel(s) : 2 channels
Sampling rate : 48.0 KHz
Stream size : 44.6 MiB (10%)
Alignment : Split accross interleaves
Interleave, duration : 40 ms (1.00 video frame)
Interleave, preload duration : 500 ms

Скриншоты


_________________
Показать сообщения:    

Текущее время: Сегодня 18:29

Часовой пояс: GMT



Вы не можете начинать темы
Вы не можете отвечать на сообщения
Вы не можете редактировать свои сообщения
Вы не можете удалять свои сообщения
Вы не можете голосовать в опросах
Вы не можете прикреплять файлы к сообщениям
Вы не можете скачивать файлы