Важное объявление!
У Нас Все раздачи мультитрекерные, при нуле пиров в релизах, можете смело вставать на закачку!
 
Автор Сообщение

HUNTER

Стаж:
4 года 4 месяца
Сообщений:
56808

Репутация: 101

[+] [-]
Вне форума [Профиль] [ЛС]

-Кунг-фу Панда 3
Kung Fu Panda 3
-Страна: Китай, США
Жанр: Мультфильм, боевик, комедия, приключения, семейный
Продолжительность: 01:35:12
Год выпуска: 2016
Перевод: Профессиональный (дублированный) iTunes
Русские субтитры: нет-Режиссёр: Алессандро Карлони, Дженнифер Ю / Alessandro Carloni, Jennifer Yuh-Роли озвучивали: Михаил Галустян, Александр Новиков, Василиса Эльдарова, Александр Хотченков, Ольга Зубкова-Описание: Воссоединившись со своим давно потерянным отцом, По отправляется в тайный рай для панд, где его ожидает встреча с множеством веселых сородичей. Однако вскоре злодей Кай начинает зачистку - он уничтожает кунг-фу мастеров по всему Китаю. По предстоит сделать невозможное - обучить боевому искусству деревню, полную его веселых, неуклюжих собратьев, и тем самым превратить их в отряд кунг-фу панд.- -Качество: WEB-DLRip
Формат: AVI
Видео: XviD 720x304 23.98fps 1662kbpss
Аудио: AC3 48kHz 6ch 384kbps
Субтитры: отсутствуют-

Подробные технические данные

GeneralComplete name : D:\Фильмы\KungFuPandaWebDLRip.aviFormat : AVIFormat/Info : Audio Video InterleaveFile size : 1.37 GiBDuration : 1h 35mnOverall bit rate : 2 054 KbpsWriting application : VirtualDubMod 1.5.10.2 (build 2540/release)Writing library : VirtualDubMod build 2540/release
VideoID : 0Format : MPEG-4 VisualFormat profile : Advanced Simple@L5Format settings, BVOP : 2Format settings, QPel : NoFormat settings, GMC : No warppointsFormat settings, Matrix : Default (MPEG)Codec ID : XVIDCodec ID/Hint : XviDDuration : 1h 35mnBit rate : 1 662 KbpsWidth : 720 pixelsHeight : 304 pixelsDisplay aspect ratio : 2.35:1Frame rate : 23.976 (24000/1001) fpsColor space : YUVChroma subsampling : 4:2:0Bit depth : 8 bitsScan type : ProgressiveCompression mode : LossyBits/(Pixel*Frame) : 0.317Stream size : 1.11 GiB (81%)Writing library : XviD 1.2.1 (UTC 2008-12-04)
AudioID : 1Format : AC-3Format/Info : Audio Coding 3Mode extension : CM (complete main)Format settings, Endianness : BigCodec ID : 2000Duration : 1h 34mnBit rate mode : ConstantBit rate : 384 KbpsChannel(s) : 6 channelsChannel positions : Front: L C R, Side: L R, LFESampling rate : 48.0 KHzFrame rate : 31.250 fps (1536 spf)Compression mode : LossyStream size : 261 MiB (19%)Alignment : Split accross interleavesInterleave, duration : 42 ms (1.00 video frame)Interleave, preload duratio : 500 ms

-
-

_________________
Показать сообщения:    

Текущее время: Сегодня 10:47

Часовой пояс: GMT



Вы не можете начинать темы
Вы не можете отвечать на сообщения
Вы не можете редактировать свои сообщения
Вы не можете удалять свои сообщения
Вы не можете голосовать в опросах
Вы не можете прикреплять файлы к сообщениям
Вы не можете скачивать файлы