Важное объявление!
У Нас Все раздачи мультитрекерные, при нуле пиров в релизах, можете смело вставать на закачку!
 
Автор Сообщение

HUNTER

Стаж:
4 года 4 месяца
Сообщений:
56829

Репутация: 101

[+] [-]
Вне форума [Профиль] [ЛС]

Кунг-фу Панда 3
Kung Fu Panda 3
«Притяженья больше нет»

Страна: США, Китай
Жанр: мультфильм, боевик, комедия, приключения, семейный
Год выпуска: 2016
Продолжительность: 01:34:56
Перевод: Профессиональный (полное дублирование) [Blu-ray 3D BALTiC]
Cубтитры: русские (форсированные)
Оригинальная аудиодорожка: нет
Режиссер: Алессандро Карлони / Alessandro Carloni, Дженнифер Ю / Jennifer Yuh Nelson
В ролях: Джек Блэк, Брайан Крэнстон, Дастин Хоффман, Анджелина Джоли, Дж.К. Симмонс, Джеки Чан, Сет Роген, Люси Лью, Дэвид Кросс, Кейт Хадсон, Джеймс Хонг, Рэндолл Дак Ким
Описание:
Воссоединившись со своим давно потерянным отцом, По отправляется в тайный рай для панд, где его ожидает встреча с множеством веселых сородичей. Однако вскоре злодей Кай начинает зачистку - он уничтожает кунг-фу мастеров по всему Китаю.


Автор рипа: stalkerok
Сэмпл
Качество видео: BDRip-AVC [Kung Fu Panda 3 (2016) 1080p BD-Remux HDCLUB]
Формат видео: MKV
Видео: 1749 Кбит/сек, 960x408 (2.35:1), 23,976 кадр/сек, AVC
Аудио: русский, 448 Кбит/сек, 48 КГц, 16 бит, 5.1, AC3
Навигация по главам: есть

MediaInfo

Общее
Уникальный идентификатор : 207987648949527331575574094686979806478 (0x9C78F6D066DE19E491B2B9D5C65AD50E)
Полное имя : M:\2Rips\Kung Fu Panda 3\Kung.Fu.Panda.3.2016.BDRip-AVC.Dub.1.45Gb.stalkerok.new-team.mkv
Формат : Matroska
Версия формата : Version 4 / Version 2
Размер файла : 1,46 Гбайт
Продолжительность : 1 ч. 34 м.
Общий поток : 2197 Кбит/сек
Название фильма : Kung Fu Panda 3 (2016) (Rip by stalkerok)
Дата кодирования : UTC 2016-07-27 10:21:24
Программа кодирования : mkvmerge v8.6.1 ('Flying') 64bit
Библиотека кодирования : libebml v1.3.3 + libmatroska v1.4.4
Видео
Идентификатор : 1
Формат : AVC
Формат/Информация : Advanced Video Codec
Профиль формата : High@L4.1
Параметр CABAC формата : Да
Параметр ReFrames формата : 15 кадров
Идентификатор кодека : V_MPEG4/ISO/AVC
Продолжительность : 1 ч. 34 м.
Битрейт : 1749 Кбит/сек
Ширина : 960 пикселей
Высота : 408 пикселей
Соотношение сторон : 2,35:1
Режим частоты кадров : Постоянный
Частота кадров : 23,976 (24000/1001) кадра/сек
Цветовое пространство : YUV
Субдискретизация насыщенности : 4:2:0
Битовая глубина : 8 бит
Тип развёртки : Прогрессивная
Бит/(Пиксели*Кадры) : 0.186
Размер потока : 1,16 Гбайт (80%)
Заголовок : Kung Fu Panda 3 (2016) (Rip by stalkerok)
Библиотека кодирования : x264 core 148 r2705+54 9f484c1 t_mod_Custom [8-bit@all X86_64]
Настройки программы : cabac=1 / ref=15 / deblock=1:-1:-1 / analyse=0x3:0x133 / me=umh / subme=10 / psy=1 / fade_compensate=0.00 / psy_rd=1.00:0.00 / mixed_ref=1 / me_range=32 / chroma_me=1 / trellis=2 / 8x8dct=1 / cqm=0 / deadzone=21,11 / fast_pskip=0 / chroma_qp_offset=-2 / threads=12 / lookahead_threads=3 / sliced_threads=0 / nr=0 / decimate=0 / interlaced=0 / bluray_compat=0 / constrained_intra=0 / fgo=0 / bframes=15 / b_pyramid=2 / b_adapt=2 / b_bias=0 / direct=3 / weightb=1 / open_gop=0 / weightp=2 / keyint=240 / keyint_min=23 / scenecut=40 / intra_refresh=0 / rc_lookahead=60 / rc=2pass / mbtree=0 / bitrate=1749 / ratetol=1.0 / qcomp=0.65 / qpmin=0:0:0 / qpmax=69:69:69 / qpstep=4 / cplxblur=20.0 / qblur=0.5 / vbv_maxrate=50000 / vbv_bufsize=62500 / nal_hrd=none / filler=0 / ip_ratio=1.40 / pb_ratio=1.30 / aq=3:0.86 / aq-sensitivity=10.00 / aq-factor=1.00:1.00:1.00 / aq2=0 / aq3=0
Default : Да
Forced : Нет
Аудио
Идентификатор : 2
Формат : AC-3
Формат/Информация : Audio Coding 3
Расширение режима : CM (complete main)
Параметр Endianness формата : Big
Идентификатор кодека : A_AC3
Продолжительность : 1 ч. 34 м.
Вид битрейта : Постоянный
Битрейт : 448 Кбит/сек
Каналы : 6 каналов
Расположение каналов : Front: L C R, Side: L R, LFE
Частота : 48,0 КГц
Частота кадров : 31,250 кадров/сек (1536 spf)
Метод сжатия : С потерями
Размер потока : 304 Мбайт (20%)
Язык : Russian
Default : Да
Forced : Нет
Текст
Идентификатор : 3
Формат : UTF-8
Идентификатор кодека : S_TEXT/UTF8
Идентификатор кодека/Информация : UTF-8 Plain Text
Продолжительность : 1 ч. 30 м.
Битрейт : 0 бит/сек
Count of elements : 3
Размер потока : 89,0 байт (0%)
Заголовок : Forced
Язык : Russian
Default : Да
Forced : Нет
Меню
00:00:00.000 : en:Chapter 1
00:05:21.778 : en:Chapter 2
00:08:10.238 : en:Chapter 3
00:10:00.015 : en:Chapter 4
00:12:26.035 : en:Chapter 5
00:15:24.214 : en:Chapter 6
00:19:08.230 : en:Chapter 7
00:24:39.394 : en:Chapter 8
00:30:17.606 : en:Chapter 9
00:33:53.990 : en:Chapter 10
00:36:18.259 : en:Chapter 11
00:39:55.643 : en:Chapter 12
00:43:32.650 : en:Chapter 13
00:46:45.844 : en:Chapter 14
00:51:41.181 : en:Chapter 15
00:56:04.610 : en:Chapter 16
00:59:48.166 : en:Chapter 17
01:02:11.351 : en:Chapter 18
01:05:26.963 : en:Chapter 19
01:10:16.837 : en:Chapter 20
01:14:06.899 : en:Chapter 21
01:17:06.579 : en:Chapter 22
01:20:34.787 : en:Chapter 23
01:24:21.180 : en:Chapter 24

Скриншоты


_________________
Показать сообщения:    

Текущее время: Сегодня 20:05

Часовой пояс: GMT



Вы не можете начинать темы
Вы не можете отвечать на сообщения
Вы не можете редактировать свои сообщения
Вы не можете удалять свои сообщения
Вы не можете голосовать в опросах
Вы не можете прикреплять файлы к сообщениям
Вы не можете скачивать файлы