Важное объявление!
У Нас Все раздачи мультитрекерные, при нуле пиров в релизах, можете смело вставать на закачку!
 
Автор Сообщение

HUNTER

Стаж:
4 года 4 месяца
Сообщений:
56790

Репутация: 101

[+] [-]
Вне форума [Профиль] [ЛС]

Культ / Cult / Karuto -
Год выпуска: 2013
Страна: Япония, Гонконг
Жанр: ужасы
Продолжительность: 01:24:15
Перевод: Любительский (одноголосый) [den904]
Субтитры: Англиские-В ролях: Ю Абиру, Мари Ирики, Маюко Иваса, Русуке Миура, Натсуке Окамото, Саури Оямада
Режиссёр: Кодзи Шираиши - -Сюжет фильма сосредоточен на трех актрисах, которые участвуют в телевизионном шоу о паранормальных явлениях. Вместе с опытным экзорцистом они пытаются очистить дом семьи Канеда от злых духов, но сталкиваются с чем-то более могущественным и ужасным...-Качество: BDRip 1080p
Формат: MKV
Видео кодек: AVC
Аудио кодек: AC-3,DTS
Видео: AVC, 1920x1080, 9381 Кбит/сек, 23.976 кадр/сек
Аудио 1: AC-3, 640 Кбит/сек, 6 канала(ов), 48,0 КГц (Russian)
Аудио 2: DTS, 1509 Кбит/сек, 6 канала(ов), 48,0 КГц (Japanese)-

Рейтинг:

Рейтинг:

MediaInfo:

General
Unique ID : 206492177770022163205934037359816098885 (0x9B58F2646D6F9DFE8F87198D5FBC4445)
Complete name : C:\Users\Fr1sk\Desktop\Новая папка (2)\Cult.2013.BDRip.1080p.CINEMANIA.mkv
Format : Matroska
Format version : Version 4 / Version 2
File size : 6.92 GiB
Duration : 1h 24mn
Overall bit rate : 11.8 Mbps
Movie name : Release Group CINEMANIA
Encoded date : UTC 2013-11-17 17:13:43
Writing application : mkvmerge v6.5.0 ('Isn't she lovely') built on Oct 20 2013 12:50:05
Writing library : libebml v1.3.0 + libmatroska v1.4.1
Video
ID : 1
Format : AVC
Format/Info : Advanced Video Codec
Format profile : [url=mailto:High@L4.1]High@L4.1[/url]
Format settings, CABAC : Yes
Format settings, ReFrames : 4 frames
Codec ID : V_MPEG4/ISO/AVC
Duration : 1h 24mn
Bit rate : 9 381 Kbps
Width : 1 920 pixels
Height : 1 080 pixels
Display aspect ratio : 16:9
Frame rate mode : Constant
Frame rate : 23.976 fps
Color space : YUV
Chroma subsampling : 4:2:0
Bit depth : 8 bits
Scan type : Progressive
Bits/(Pixel*Frame) : 0.189
Stream size : 5.52 GiB (80%)
Title : Release Group CINEMANIA
Language : English
Default : Yes
Forced : No
Audio #1
ID : 2
Format : AC-3
Format/Info : Audio Coding 3
Mode extension : CM (complete main)
Format settings, Endianness : Big
Codec ID : A_AC3
Duration : 1h 24mn
Bit rate mode : Constant
Bit rate : 640 Kbps
Channel(s) : 6 channels
Channel positions : Front: L C R, Side: L R, LFE
Sampling rate : 48.0 KHz
Bit depth : 16 bits
Compression mode : Lossy
Stream size : 386 MiB (5%)
Title : den904
Language : Russian
Default : Yes
Forced : Yes
Audio #2
ID : 3
Format : DTS
Format/Info : Digital Theater Systems
Mode : 16
Format settings, Endianness : Big
Codec ID : A_DTS
Duration : 1h 24mn
Bit rate mode : Constant
Bit rate : 1 509 Kbps
Channel(s) : 6 channels
Channel positions : Front: L C R, Side: L R, LFE
Sampling rate : 48.0 KHz
Bit depth : 24 bits
Compression mode : Lossy
Stream size : 909 MiB (13%)
Language : Japanese
Default : No
Forced : No
Text
ID : 4
Format : UTF-8
Codec ID : S_TEXT/UTF8
Codec ID/Info : UTF-8 Plain Text
Language : English
Default : No
Forced : No
Menu
00:00:00.000 : en:00:00:00.000
00:07:58.186 : en:00:07:58.186
00:15:45.987 : en:00:15:45.987
00:23:48.218 : en:00:23:48.218
00:29:59.464 : en:00:29:59.464
00:37:09.727 : en:00:37:09.727
00:45:05.661 : en:00:45:05.661
00:50:10.132 : en:00:50:10.132
00:59:42.871 : en:00:59:42.871
01:07:55.530 : en:01:07:55.530
01:16:24.121 : en:01:16:24.121
01:21:44.483 : en:01:21:44.483

Скриншоты:


_________________
Показать сообщения:    

Текущее время: Сегодня 17:29

Часовой пояс: GMT



Вы не можете начинать темы
Вы не можете отвечать на сообщения
Вы не можете редактировать свои сообщения
Вы не можете удалять свои сообщения
Вы не можете голосовать в опросах
Вы не можете прикреплять файлы к сообщениям
Вы не можете скачивать файлы