Важное объявление!
У Нас Все раздачи мультитрекерные, при нуле пиров в релизах, можете смело вставать на закачку!
 
Автор Сообщение

HUNTER

Стаж:
4 года 4 месяца
Сообщений:
56798

Репутация: 101

[+] [-]
Вне форума [Профиль] [ЛС]

Кулинарные миры Джейми Оливера / Jamie's Food Escapes
Страна: Соединённое Королевство Великобритании и Северной Ирландии
Тематика: Кулинарное шоу
Тип раздаваемого материала: Видеоурок
Продолжительность: 00:47:42
Год выпуска: 2010
Язык: Русский
Перевод: Профессиональный (одноголосый)
Язык субтитров: нет
Описание: После американской поездки и великого итальянского побега, Джейми Оливер вернулся на дорогу кулинарных экспедиций по всей Европе и Северной Африке. В этой новой серии, Джеми посещает шесть мест - Марракеш, Афины, Андалусия, Стокгольм, Венеция и Миди Пиренеи во Франции. В каждом эпизоде, Джейми также погружается в уникальную культуру каждого пункта пребывания, исследует рынки, и узнает о традиционной практике приготовления местных жителей.
Эпизод 1 - Джейми в Марракеше / Marrakesh.
Эпизод 2 - Джейми в Андалусии / Andalucia.
Эпизод 3 - Джейми в Стокгольме / Stockholm.
Эпизод 4 - Джейми в Венеции / Venice.
Эпизод 5 - Джейми в Пиренеях / The French Pyrenees (отсуствует).
Эпизод 6 - Джейми в Афинах / Athens.
Доп. информация:

Чистая запись с канала Телекафе без перекодирования.

MediaInfo

Код:
General
ID                                       : 16 (0x10)
Complete name                            : E:\Jamie\Jamie's Food Escapes\Маракеш.ts
Format                                   : MPEG-TS
File size                                : 939 MiB
Duration                                 : 47mn 42s
Overall bit rate mode                    : Variable
Overall bit rate                         : 2 751 Kbps
Video
ID                                       : 3009 (0xBC1)
Menu ID                                  : 3 (0x3)
Format                                   : MPEG Video
Format version                           : Version 2
Format profile                           : Main@Main
Format settings, BVOP                    : Yes
Format settings, Matrix                  : Custom
Format settings, GOP                     : Variable
Codec ID                                 : 2
Duration                                 : 47mn 42s
Bit rate mode                            : Variable
Bit rate                                 : 2 421 Kbps
Maximum bit rate                         : 15.0 Mbps
Width                                    : 720 pixels
Height                                   : 576 pixels
Display aspect ratio                     : 4:3
Frame rate                               : 25.000 fps
Standard                                 : PAL
Color space                              : YUV
Chroma subsampling                       : 4:2:0
Bit depth                                : 8 bits
Scan type                                : Interlaced
Scan order                               : Top Field First
Compression mode                         : Lossy
Bits/(Pixel*Frame)                       : 0.233
Time code of first frame                 : 00:00:00:00
Time code source                         : Group of pictures header
Stream size                              : 826 MiB (88%)
Audio
ID                                       : 406 (0x196)
Menu ID                                  : 3 (0x3)
Format                                   : MPEG Audio
Format version                           : Version 1
Format profile                           : Layer 2
Codec ID                                 : 3
Duration                                 : 47mn 42s
Bit rate mode                            : Constant
Bit rate                                 : 192 Kbps
Channel count                            : 2 channels
Sampling rate                            : 48.0 KHz
Compression mode                         : Lossy
Stream size                              : 65.5 MiB (7%)
Качество: DVB
Формат: TS
Видео кодек: MPEG2
Аудио кодек: MP2
Видео: MPEG2 Video 720x576 (4:3) 25fps 2421 Kbps
Аудио: MPEG Audio 48000Hz stereo 192kbps

Скриншоты.Fastpic


Скриншоты.Яндекс



_________________
Показать сообщения:    

Текущее время: Сегодня 07:43

Часовой пояс: GMT



Вы не можете начинать темы
Вы не можете отвечать на сообщения
Вы не можете редактировать свои сообщения
Вы не можете удалять свои сообщения
Вы не можете голосовать в опросах
Вы не можете прикреплять файлы к сообщениям
Вы не можете скачивать файлы