Важное объявление!
У Нас Все раздачи мультитрекерные, при нуле пиров в релизах, можете смело вставать на закачку!
 
Автор Сообщение

palych74

Стаж:
4 года 4 месяца
Сообщений:
80

Репутация: 21

[+] [-]
Вне форума [Профиль] [ЛС]

Кулинар--
Год выпуска: 2012
Производство: Россия, StarMedia при участии «Green-Film» по заказу РЕН ТВ
Жанр: Боевик, криминал
Продолжительность: ~48 минут серия-Режиссёр: Михаил Макаренко, Андрей Иванов
В ролях: Игорь Ботвин, Сергей Гамов, Роман Агеев, Игорь Ламба, Светлана Цвиченко, Кирилл Капица, Андрей Аверков, Юрий Уткин, Ольга Белявская, Евгений Сиротин, Александр Глинский, Рафаил Эйвазов, Денис Кириллов, Владимир Космидайло, Анатолий Ильченко, Александр Мосолов, Геннадий Макоев, Сергей Шкарбан, Сергей Федоров (VI), Стэнли Красовицки, Наталья Голованова, Евгений Катаев, Диана Дезмари, Елена Купрашевич, Антон Успенский-Описание: Феликс Малинин живет в небольшом городке. Среди друзей и знакомых, он слывет неплохим парнем, замкнутым чудаком, постоянно пропадающим в командировках. У Феликса есть небольшое пристрастие – он очень любит готовить, а также У НЕГО ЕСТЬ секрет, о котором знают лишь несколько человек. На самом деле он – сотрудник оперативно-розыскного бюро МВД. Его оперативный псевдоним - «Кулинар». Его работа – оперативное внедрение и сбор информации обо всём, что может представлять интерес для правоохранительных органов. Способный мгновенно перевоплощаться и любыми способами получить нужную информацию, к каждому делу Феликс подходит с особым вкусом – будто готовит очередное блюдо, а каждой операции дает кулинарное название..-Все раздачи сериала / Сэмпл-Качество: SATRip
Формат: AVI
Видео кодек: XviD
Аудио кодек: MP3
Видео: 720x400, (16:9), 25.000 fps, XviD, ~1700 kbps avg, 0.235 bit/pixel
Аудио: 48 kHz, MP3, 2 ch, ~192.00 kbps avg
Рекламы нет!

Список серий

Фильм первый: Закуска по-крестовски (1-2 серии)
Фильм второй: Шанхайская роза (3-4 серии)
Фильм третий: Правое дело (5-6 серии)
Фильм четвёртый: На живца (7-8 серии)
Фильм пятый: Приют ямщика (9-10 серии)
Фильм шестой: Операция орион (11-12 серии)
Фильм седьмой: Опасный прииск (13-14 серии)
Фильм восьмой: Серпантин (15-16 серии)
Фильм девятый: Двойная игра (17-18 серии)
Фильм десятый: Поправка на ветер (19-20 серии)

Медиаинфо

General
Complete name : Kulinar.2012.SATRip.REN_TV\Kulinar.2012_01.serija.avi
Format : AVI
Format/Info : Audio Video Interleave
File size : 645 MiB
Duration : 47mn 45s
Overall bit rate : 1 889 Kbps
Director :
Writing application : VirtualDubMod 1.5.10.2 (build 2540/release)
Writing library : VirtualDubMod build 2540/release
Video
ID : 0
Format : MPEG-4 Visual
Format profile : Advanced Simple@L5
Format settings, BVOP : 1
Format settings, QPel : No
Format settings, GMC : No warppoints
Format settings, Matrix : Custom
Codec ID : XVID
Codec ID/Hint : XviD
Duration : 47mn 45s
Bit rate : 1 687 Kbps
Width : 720 pixels
Height : 400 pixels
Display aspect ratio : 16:9
Frame rate : 25.000 fps
Color space : YUV
Chroma subsampling : 4:2:0
Bit depth : 8 bits
Scan type : Progressive
Compression mode : Lossy
Bits/(Pixel*Frame) : 0.234
Stream size : 576 MiB (89%)
Writing library : XviD 1.2.1 (UTC 2008-12-04)
Audio
ID : 1
Format : MPEG Audio
Format version : Version 1
Format profile : Layer 3
Mode : Joint stereo
Mode extension : MS Stereo
Codec ID : 55
Codec ID/Hint : MP3
Duration : 47mn 45s
Bit rate mode : Constant
Bit rate : 192 Kbps
Channel(s) : 2 channels
Sampling rate : 48.0 KHz
Compression mode : Lossy
Stream size : 65.6 MiB (10%)
Alignment : Aligned on interleaves
Interleave, duration : 40 ms (1.00 video frame)
Interleave, preload duration : 504 ms
Writing library : LAME3.90.3

Раздача ведётся путём добавления новых серий

Внимание! Раздача ведётся путём добавления новых серий; при каждом добавлении создаётся новый торрент. Чтобы начать докачку новой серии, пользователям необходимо сделать следующее:
(1) остановить скачивание,
(2) удалить старый торрент у себя из клиента (старые серии удалять не надо),
(3) скачать новый торрент и запустить его у себя в клиенте вместо старого, при этом указать клиенту путь в старую папку куда и должно происходить скачивание новых серий.
Ваш клиент при этом должен произвести хеширование (проверку) старой папки (если не производит сам - помогите ему сделать это), и будет докачивать только те серии которых у вас ещё нет. Старые серии при этом не удаляются, а продолжают раздаваться!
Eсли вы уже удалили старые серии, то предотвратить повторную закачку старых серий можно, отжав галочку в соответствующих местах при запуске нового торрента. По возможности, желательно не удалять старые серии как можно дольше чтобы релизёр не столько продолжал раздавать старые серии, а смог сконцентрироваться на новых.

Скриншоты

Добавлены 17-20 cерии.
Показать сообщения:    

Текущее время: Сегодня 18:50

Часовой пояс: GMT



Вы не можете начинать темы
Вы не можете отвечать на сообщения
Вы не можете редактировать свои сообщения
Вы не можете удалять свои сообщения
Вы не можете голосовать в опросах
Вы не можете прикреплять файлы к сообщениям
Вы не можете скачивать файлы