Важное объявление!
У Нас Все раздачи мультитрекерные, при нуле пиров в релизах, можете смело вставать на закачку!
 
Автор Сообщение

HUNTER

Стаж:
4 года 4 месяца
Сообщений:
56798

Репутация: 101

[+] [-]
Вне форума [Профиль] [ЛС]

Куда делась наша Вселенная? / Большая часть Вселенной невидима / Horizon. Most of our Universe is Missing
Дата/Год выпуска: 09.02.2006
Страна: Великобритания
Жанр: Документальный
Продолжительность: 00:48:07
Перевод: Профессиональный (многоголосый закадровый)
Описание: Мы можем объяснить происхождение только крошечного процента нашей Вселенной - приблизительно 4%. Но из чего же состоят остальные 96 %? Ученые предполагают, что этим невидимым веществом может являться темная материя. На поиски доказательств существования темной материи тратятся огромные средства. Ученые всего мира стараются понять, каким образом темная материя участвует в строении нашей Вселенной и всего материального мира вокруг нас.
Режиссёр: Петер Леонард / Peter Leonard
Сэмпл: http://sendfile.su/1124369
качество: SATRip
формат: AVI
Видео: XviD 1017 kbps 672x448 3:2 25.000 fps
Аудио: MP3 64 kbps 1 ch 44100 khz

MediaInfo

GeneralComplete name : C:\Documents and Settings\Администратор\Мои документы\Most of our Universe is Missing Куда делась наша Вселенная.aviFormat : AVIFormat/Info : Audio Video InterleaveFile size : 375 MiBDuration : 48mn 7sOverall bit rate : 1 090 KbpsWriting application : VirtualDubMod 1.5.10.3 | www.virtualdub-fr.org || (build 2550/release)Writing library : VirtualDubMod build 2550/release
VideoID : 0Format : MPEG-4 VisualFormat profile : Advanced Simple@L5Format settings, BVOP : 1Format settings, QPel : NoFormat settings, GMC : No warppointsFormat settings, Matrix : Default (H.263)Codec ID : XVIDCodec ID/Hint : XviDDuration : 48mn 7sBit rate : 1 017 KbpsWidth : 672 pixelsHeight : 448 pixelsDisplay aspect ratio : 3:2Frame rate : 25.000 fpsColor space : YUVChroma subsampling : 4:2:0Bit depth : 8 bitsScan type : ProgressiveCompression mode : LossyBits/(Pixel*Frame) : 0.135Stream size : 350 MiB (93%)Writing library : XviD 1.2.1 (UTC 2008-12-04)
AudioID : 1Format : MPEG AudioFormat version : Version 1Format profile : Layer 3Codec ID : 55Codec ID/Hint : MP3Duration : 48mn 7sBit rate mode : ConstantBit rate : 64.0 KbpsChannel(s) : 1 channelSampling rate : 44.1 KHzCompression mode : LossyStream size : 22.0 MiB (6%)Alignment : Split accross interleavesInterleave, duration : 40 ms (1.00 video frame)Interleave, preload duration : 500 msWriting library : LAME3.99rEncoding settings : -m m -V 4 -q 2 -lowpass 16.5 -b 64

Скриншоты


_________________
Показать сообщения:    

Текущее время: Сегодня 03:29

Часовой пояс: GMT



Вы не можете начинать темы
Вы не можете отвечать на сообщения
Вы не можете редактировать свои сообщения
Вы не можете удалять свои сообщения
Вы не можете голосовать в опросах
Вы не можете прикреплять файлы к сообщениям
Вы не можете скачивать файлы