Важное объявление!
У Нас Все раздачи мультитрекерные, при нуле пиров в релизах, можете смело вставать на закачку!
 
Автор Сообщение

HUNTER

Стаж:
4 года 4 месяца
Сообщений:
56839

Репутация: 101

[+] [-]
Вне форума [Профиль] [ЛС]

Кто твой Кэдди? / Who's Your Caddy?-
Страна: США
Жанр: комедия, спорт
Год выпуска: 2007
Продолжительность: 01:31:02
Перевод: Профессиональный (двухголосый закадровый)
Cубтитры: английские
Оригинальная аудиодорожка: английский-Режиссер: Дон Майкл Пол / Don Michael Paul
В ролях: Мик Патридж, Биг Бой, Фэйзон Лав, Шерри Шеперд, Файниз Митчелл, Чейз Татум, Джеффри Джонс, Джим Пиддок, Саманта Лемоул, Тодд Шерри-Описание: После того как мегапопулярный и столь же богатый рэппер Си-Ноут получает категорический отказ на свою просьбу стать участником престижного гольф клуба, он решает во что бы то ни стало добиться поставленной цели. Герой покупает небольшой клочок земли рядом с тем районом, где располагается 18-я лунка гольф-клуба, и воспользовавшись им как плацдармом начинает хитростью и вероломством добиваться желанного членства. Конечно же соседство с рэппером и его многочисленными друзьями, самым негативным образом сказываются на чопорном стиле жизни завсегдатаев клуба, которым приходится всерьёз задуматься о сдаче позиций…-
-Тип релиза: WEB-DL 720p
Контейнер: MKV
Видео: AVC, 1280x718, 4000 kbps, 23.976 fps, 0.182 bpf
Аудио 1: AC3, 48000 Hz, 448 kbps, 5.1 channels - Двухголосый
Аудио 2: AC3, 48000 Hz, 384 kbps, 5.1 channels - Original
Формат субтитров: softsub (SRT)-

Скриншоты


Резервные скриншоты



-

MediaInfo

Format : Matroska
Format version : Version 4 / Version 2
File size : 3.14 GiB
Duration : 1h 31mn
Overall bit rate : 4 931 Kbps
Movie name : Кто твой Кэдди? / Who's Your Caddy? (2007) WEB-DL 720p [RG Torrents.ru]
Encoded date : UTC 2015-06-04 03:10:59
Writing application : mkvmerge v7.8.0 ('River Man') 32bit built on Mar 27 2015 16:18:02
Writing library : libebml v1.3.1 + libmatroska v1.4.2
Cover : Yes
Video
ID : 1
Format : AVC
Format/Info : Advanced Video Codec
Format profile : High@L3.1
Format settings, CABAC : No
Format settings, ReFrames : 2 frames
Format settings, GOP : N=1
Codec ID : V_MPEG4/ISO/AVC
Duration : 1h 31mn
Bit rate : 4 000 Kbps
Width : 1 280 pixels
Height : 718 pixels
Display aspect ratio : 16:9
Frame rate mode : Constant
Frame rate : 23.976 fps
Color space : YUV
Chroma subsampling : 4:2:0
Bit depth : 8 bits
Scan type : Progressive
Bits/(Pixel*Frame) : 0.182
Stream size : 2.54 GiB (81%)
Language : English
Default : Yes
Forced : No
Color primaries : BT.709
Transfer characteristics : BT.709
Matrix coefficients : BT.709
Audio #1
ID : 2
Format : AC-3
Format/Info : Audio Coding 3
Mode extension : CM (complete main)
Format settings, Endianness : Big
Codec ID : A_AC3
Duration : 1h 31mn
Bit rate mode : Constant
Bit rate : 448 Kbps
Channel(s) : 6 channels
Channel positions : Front: L C R, Side: L R, LFE
Sampling rate : 48.0 KHz
Bit depth : 16 bits
Compression mode : Lossy
Stream size : 292 MiB (9%)
Language : Russian
Default : Yes
Forced : No
Audio #2
ID : 3
Format : AC-3
Format/Info : Audio Coding 3
Mode extension : CM (complete main)
Format settings, Endianness : Big
Codec ID : A_AC3
Duration : 1h 31mn
Bit rate mode : Constant
Bit rate : 384 Kbps
Channel(s) : 6 channels
Channel positions : Front: L C R, Side: L R, LFE
Sampling rate : 48.0 KHz
Bit depth : 16 bits
Compression mode : Lossy
Stream size : 250 MiB (8%)
Language : English
Default : No
Forced : No
Text
ID : 4
Format : UTF-8
Codec ID : S_TEXT/UTF8
Codec ID/Info : UTF-8 Plain Text
Title : CC
Language : English
Default : No
Forced : No
Menu
00:00:00.000 : en:There Goes The Neighborhood
00:06:34.000 : en:Location, Location, Location
00:12:29.000 : en:Legal Council
00:16:59.000 : en:Enough Rope
00:22:18.000 : en:Time To Play
00:29:00.000 : en:The Induction
00:35:02.000 : en:A Night On The Town
00:41:17.000 : en:A Small Job
00:44:47.000 : en:Who's Your Daddy?
00:50:49.000 : en:Time To Go
00:56:12.000 : en:The Sport Of Kings
01:02:08.000 : en:The Challenge
01:06:39.000 : en:The Front Nine
01:12:04.000 : en:The Back Nine
01:18:19.000 : en:The 19th Hole
01:22:17.000 : en:End Credits

_________________
Показать сообщения:    

Текущее время: Сегодня 02:22

Часовой пояс: GMT



Вы не можете начинать темы
Вы не можете отвечать на сообщения
Вы не можете редактировать свои сообщения
Вы не можете удалять свои сообщения
Вы не можете голосовать в опросах
Вы не можете прикреплять файлы к сообщениям
Вы не можете скачивать файлы