Важное объявление!
У Нас Все раздачи мультитрекерные, при нуле пиров в релизах, можете смело вставать на закачку!
 
Автор Сообщение

HUNTER

Стаж:
4 года 4 месяца
Сообщений:
56790

Репутация: 101

[+] [-]
Вне форума [Профиль] [ЛС]

Кто позаботится о магазине? / Who's Minding the Store?
Страна: США
Студия: Jerry Lewis Pictures|Paramount Pictures|York Pictures Corporation
Жанр: комедия
Год выпуска: 1963
Продолжительность: 01:30:01
Перевод: Профессиональный (многоголосый закадровый)
Cубтитры: нет
Оригинальная аудиодорожка: английский
Режиссер: Фрэнк Тэшлин / Frank Tashlin
В ролях: Джерри Льюис, Джилл Ст. Джон, Рей Уолстон, Джон МакГайвер, Агнес Мурхед, Франческа Беллини, Пегги Мондо, Нэнси Калп, Джон Эбботт, Изобел Элсом
Описание: Норман работает в магазине в большом универмаге. Неуклюжий и неумелый, он ничего не может сделать правильно.
Кинопоиск|Imdb|Сэмпл
Тип релиза: BDRemux 1080p
Контейнер: MKV
Видео: MPEG4 Video (H264) 1920x1080 23.976fps 26601 kbps
Аудио: Russian AC-3 / 2 ch / 48.0 KHz / 192 Kbps
Аудио 2: English AC-3 / 2 ch / 48.0 KHz / 192 Kbps

MediaInfo

General
Unique ID : 224965009168585264245592270192374191534 (0xA93EAF4C699BD89381CC63824C3815AE)
Complete name : C:\Users\Вика\Desktop\Whos.Minding.The.Store.1963.BDRemux.1080p.mkv
Format : Matroska
Format version : Version 4 / Version 2
File size : 16.9 GiB
Duration : 1h 30mn
Overall bit rate mode : Variable
Overall bit rate : 26.9 Mbps
Encoded date : UTC 2015-04-13 04:54:40
Writing application : mkvmerge v7.4.0 ('Circles') 64bit built on Dec 12 2014 12:19:56
Writing library : libebml v1.3.0 + libmatroska v1.4.1
DURATION : 01:29:48.480000000
NUMBER_OF_FRAMES : 168390
NUMBER_OF_BYTES : 129323520
_STATISTICS_WRITING_APP : mkvmerge v7.4.0 ('Circles') 64bit built on Dec 12 2014 12:19:56
_STATISTICS_WRITING_DATE_UTC : 2015-04-13 04:54:40
_STATISTICS_TAGS : BPS DURATION NUMBER_OF_FRAMES NUMBER_OF_BYTES
Video
ID : 1
Format : AVC
Format/Info : Advanced Video Codec
Format profile : High@L4.1
Format settings, CABAC : Yes
Format settings, ReFrames : 4 frames
Codec ID : V_MPEG4/ISO/AVC
Duration : 1h 30mn
Bit rate mode : Variable
Bit rate : 26.0 Mbps
Maximum bit rate : 32.0 Mbps
Width : 1 920 pixels
Height : 1 080 pixels
Display aspect ratio : 16:9
Frame rate mode : Constant
Frame rate : 23.976 fps
Standard : NTSC
Color space : YUV
Chroma subsampling : 4:2:0
Bit depth : 8 bits
Scan type : Progressive
Bits/(Pixel*Frame) : 0.523
Stream size : 16.4 GiB (97%)
Default : Yes
Forced : No
Color primaries : BT.709
Transfer characteristics : BT.709
Matrix coefficients : BT.709
Audio #1
ID : 2
Format : AC-3
Format/Info : Audio Coding 3
Mode extension : CM (complete main)
Format settings, Endianness : Big
Codec ID : A_AC3
Duration : 1h 30mn
Bit rate mode : Constant
Bit rate : 192 Kbps
Channel(s) : 2 channels
Channel positions : Front: L R
Sampling rate : 48.0 KHz
Bit depth : 16 bits
Compression mode : Lossy
Stream size : 124 MiB (1%)
Language : Russian
Default : Yes
Forced : No
Audio #2
ID : 3
Format : AC-3
Format/Info : Audio Coding 3
Mode extension : CM (complete main)
Format settings, Endianness : Big
Codec ID : A_AC3
Duration : 1h 30mn
Bit rate mode : Constant
Bit rate : 192 Kbps
Channel(s) : 2 channels
Channel positions : Front: L R
Sampling rate : 48.0 KHz
Bit depth : 16 bits
Compression mode : Lossy
Stream size : 124 MiB (1%)
Language : English
Default : No
Forced : No

Скриншоты


_________________
Показать сообщения:    

Текущее время: Сегодня 18:32

Часовой пояс: GMT



Вы не можете начинать темы
Вы не можете отвечать на сообщения
Вы не можете редактировать свои сообщения
Вы не можете удалять свои сообщения
Вы не можете голосовать в опросах
Вы не можете прикреплять файлы к сообщениям
Вы не можете скачивать файлы