Важное объявление!
У Нас Все раздачи мультитрекерные, при нуле пиров в релизах, можете смело вставать на закачку!
 
Автор Сообщение

HUNTER

Стаж:
4 года 4 месяца
Сообщений:
56822

Репутация: 101

[+] [-]
Вне форума [Профиль] [ЛС]

Крылья над Берлином
Год выпуска: 2002
Страна: Россия
Жанр: Документальный
Продолжительность: 00:51:00
Перевод: Не требуется
Русские субтитры: нет
Режиссер: Н.Сергеева
Описание: В августе 1941 года фашисты рвались к Москве, Смоленск уже пал, над Ленинградом нависла смертельная опасность, а Гитлер заявил, что Советский Союз войну уже практически проиграл.
Именно тогда над Берлином появились первые советские бомбардировщики. Наши летчики осуществляли тогда немыслимые по риску и героизму вылеты.
Но какова была цена этого героизма? Был ли смысл рисковать самолетами и летчиками-асами, многие из которых не вернулись из полетов?
В учебниках истории эта операция упоминается одной строкой, ее порой не помнят даже те, кто пережил начало войны.
Однако авторам фильма удалось найти тех, кто принимал участие в операции, – последних свидетелей, чьи рассказы бесценны. Трагическое лето 41-го года вспоминают: известный политик Александр Николаевич Яковлев, который в те годы был молодым бойцом; артист Лев Дуров, в то время подросток; летчик Виталий Попков – прототип знаменитого Маэстро из кинофильма «В бой идут одни старики».
Так почему подробности уникальных героических полетов оставались неизвестны? Почему их участники, Герои Советского Союза, не популярны в народе так же, как Гастелло и Талалихин? И каков был военный, а не пропагандистский смысл бомбить Берлин летом сорок первого?
Сэмпл: http://www.sendspace.com/file/niliux
качество: DVB
формат: MPG
видеокодек: MPEG2
аудиокодек: MPEG Audio
Видео: MPEG Video, 768х576, 4:3, 2058 Кбит/сек, 25 fps
Аудио: MPEG Audio, 192 Кбит/сек, 48 КГц, 2 канала

MediaInfo

Общее
Полное имя : Wings over the Reichstag.mpeg
Формат : MPEG-PS
Размер файла : 826 Мбайт
Продолжительность : 50 м.
Режим общего битрейта : Переменный
Общий поток : 2296 Кбит/сек
Видео
Идентификатор : 224 (0xE0)
Формат : MPEG Video
Версия формата : Version 2
Профиль формата : Main@Main
Параметр BVOP формата : Да
Параметр матрицы формата : Выборочная
Параметр GOP формата : M=3, N=12
Продолжительность : 50 м.
Вид битрейта : Переменный
Битрейт : 2058 Кбит/сек
Максимальный битрейт : 3826 Кбит/сек
Ширина : 768 пикселей
Высота : 576 пикселей
Соотношение сторон : 4:3
Частота кадров : 25,000 кадров/сек
Стандарт вещания : PAL
Цветовое пространство : YUV
Субдискретизация насыщенности : 4:2:0
Битовая глубина : 8 бит
Тип развёртки : Чересстрочная
Порядок развёртки : Верхнее поле первое
Метод сжатия : С потерями
Бит/(Пиксели*Кадры) : 0.199
Размер потока : 740 Мбайт (90%)
Аудио
Идентификатор : 192 (0xC0)
Формат : MPEG Audio
Версия формата : Version 1
Профиль формата : Layer 2
Продолжительность : 50 м.
Вид битрейта : Постоянный
Битрейт : 192 Кбит/сек
Каналы : 2 канала
Частота : 48,0 КГц
Метод сжатия : С потерями
Задержка видео : -40 мс.
Размер потока : 69,0 Мбайт (8%)

Скриншоты


_________________
Показать сообщения:    

Текущее время: Сегодня 07:31

Часовой пояс: GMT



Вы не можете начинать темы
Вы не можете отвечать на сообщения
Вы не можете редактировать свои сообщения
Вы не можете удалять свои сообщения
Вы не можете голосовать в опросах
Вы не можете прикреплять файлы к сообщениям
Вы не можете скачивать файлы