Важное объявление!
У Нас Все раздачи мультитрекерные, при нуле пиров в релизах, можете смело вставать на закачку!
 
Автор Сообщение

HUNTER

Стаж:
4 года 4 месяца
Сообщений:
56749

Репутация: 101

[+] [-]
Вне форума [Профиль] [ЛС]

Крылья голубки / The Wings Of The Dove-
Год выпуска: 1997
Выпущено: США, Великобритания
Жанр: драма, мелодрама
Продолжительность: 01:41:45
Перевод: Профессиональный (многоголосый, закадровый)
+ Авторский одноголосый Ю.Сербин
Оригинальная звуковая дорожка: English
Субтитры: Russian, English-Режиссер: Иэн Софтли / Iain Softley
В ролях: Хелена Бонем Картер, Лайнас Роуч, Элисон Эллиотт, Шарлотта Рэмплинг, Элизабет МакГоверн, Майкл Гэмбон, Алекс Дженнингс, Бен Майлз, Филип Райт, Александр Джон
О фильме: ИКейт, девушка из высшего общества, влюбляется в простого журналиста. Ее разум не позволяет ей нарушить традиции и строгие устои XIX века в то время, как сердце принадлежит бурному новому веку, призывает окунуться со всем пылом юной страсти в безумный роман.
Но вдруг появляется юная американка, и ход событий меняется.
DON!
Релиз:
Формат: MKV
Видео: 1280x546 at 23.976 fps, x264, ~6959 kbps avg
Аудио #01: Russian: 48 kHz, AC3, 3/2 (L,C,R,l,r) + LFE ch, ~448.00 kbps avg |Многоголосый закадровый|
Аудио #02: Russian: 48 kHz/16-bit, DTS, 3/2 (L,C,R,l,r) + LFE ch, ~768.00 kbps avg |Одноголосый закадровый, Ю.Сербин|
Аудио #03: English: 48 kHz/16-bit, DTS, 3/2 (L,C,R,l,r) + LFE ch, ~768.00 kbps avg
Семпл-
-

mInfo

Формат : Matroska
Версия формата : Version 4 / Version 2
Размер файла : 6,35 Гбайт
Продолжительность : 1 ч. 41 м.
Общий поток : 8942 Кбит/сек
Название фильма : The Wings Of The Dove (1997) - Release for HDCLUB
Дата кодирования : UTC 2014-08-06 04:05:20
Программа кодирования : mkvmerge v6.1.0 ('Old Devil') built on Mar 2 2013 14:32:37
Библиотека кодирования : libebml v1.3.0 + libmatroska v1.4.0
Видео
Идентификатор : 1
Формат : AVC
Формат/Информация : Advanced Video Codec
Профиль формата : High@L4.1
Параметр CABAC формата : Да
Параметр ReFrames формата : 11 кадров
Идентификатор кодека : V_MPEG4/ISO/AVC
Продолжительность : 1 ч. 41 м.
Битрейт : 6959 Кбит/сек
Ширина : 1280 пикселей
Высота : 546 пикселей
Соотношение сторон : 2,35:1
Режим частоты кадров : Постоянный
Частота кадров : 23,976 кадра/сек
Цветовое пространство : YUV
Субдискретизация насыщенности : 4:2:0
Битовая глубина : 8 бит
Тип развёртки : Прогрессивная
Бит/(Пиксели*Кадры) : 0.415
Размер потока : 4,82 Гбайт (76%)
Библиотека кодирования : x264 core 125 r2200 999b753
Настройки программы : cabac=1 / ref=11 / deblock=1:-3:-3 / analyse=0x3:0x133 / me=umh / subme=11 / psy=1 / psy_rd=0.90:0.05 / mixed_ref=1 / me_range=32 / chroma_me=1 / trellis=2 / 8x8dct=1 / cqm=0 / deadzone=21,11 / fast_pskip=0 / chroma_qp_offset=-3 / threads=6 / lookahead_threads=1 / sliced_threads=0 / nr=0 / decimate=1 / interlaced=0 / bluray_compat=0 / constrained_intra=0 / bframes=10 / b_pyramid=2 / b_adapt=2 / b_bias=0 / direct=3 / weightb=1 / open_gop=0 / weightp=2 / keyint=250 / keyint_min=23 / scenecut=40 / intra_refresh=0 / rc_lookahead=60 / rc=2pass / mbtree=1 / bitrate=6959 / ratetol=1.0 / qcomp=0.70 / qpmin=0 / qpmax=69 / qpstep=4 / cplxblur=20.0 / qblur=0.5 / ip_ratio=1.40 / aq=1:0.70
Язык : English
Default : Да
Forced : Нет
Аудио #1
Идентификатор : 2
Формат : AC-3
Формат/Информация : Audio Coding 3
Расширение режима : CM (complete main)
Параметр Endianness формата : Big
Идентификатор кодека : A_AC3
Продолжительность : 1 ч. 41 м.
Вид битрейта : Постоянный
Битрейт : 448 Кбит/сек
Каналы : 6 каналов
Расположение каналов : Front: L C R, Side: L R, LFE
Частота : 48,0 КГц
Битовая глубина : 16 бит
Метод сжатия : С потерями
Размер потока : 326 Мбайт (5%)
Заголовок : |Многоголосый закадровый|
Язык : Russian
Default : Да
Forced : Нет
Аудио #2
Идентификатор : 3
Формат : DTS
Формат/Информация : Digital Theater Systems
Режим : 16
Параметр Endianness формата : Big
Идентификатор кодека : A_DTS
Продолжительность : 1 ч. 41 м.
Вид битрейта : Постоянный
Битрейт : 768 Кбит/сек
Каналы : 6 каналов
Расположение каналов : Front: L C R, Side: L R, LFE
Частота : 48,0 КГц
Битовая глубина : 24 бит
Метод сжатия : С потерями
Размер потока : 559 Мбайт (9%)
Заголовок : |Одноголосый закадровый, Ю.Сербин|
Язык : Russian
Default : Нет
Forced : Нет
Аудио #3
Идентификатор : 4
Формат : DTS
Формат/Информация : Digital Theater Systems
Режим : 16
Параметр Endianness формата : Big
Идентификатор кодека : A_DTS
Продолжительность : 1 ч. 41 м.
Вид битрейта : Постоянный
Битрейт : 768 Кбит/сек
Каналы : 6 каналов
Расположение каналов : Front: L C R, Side: L R, LFE
Частота : 48,0 КГц
Битовая глубина : 24 бит
Метод сжатия : С потерями
Размер потока : 559 Мбайт (9%)
Язык : English
Default : Нет
Forced : Нет
Текст #1
Идентификатор : 5
Формат : UTF-8
Идентификатор кодека : S_TEXT/UTF8
Идентификатор кодека/Информация : UTF-8 Plain Text
Язык : Russian
Default : Нет
Forced : Нет
Текст #2
Идентификатор : 6
Формат : UTF-8
Идентификатор кодека : S_TEXT/UTF8
Идентификатор кодека/Информация : UTF-8 Plain Text
Язык : English
Default : Нет
Forced : Нет
Меню
00:00:00.000 : :00:00:00.000
00:00:12.930 : :00:00:12.930
00:04:08.790 : :00:04:08.790
00:13:25.972 : :00:13:25.972
00:19:45.726 : :00:19:45.726
00:28:10.480 : :00:28:10.480
00:32:45.797 : :00:32:45.797
00:46:04.762 : :00:46:04.762
00:46:22.363 : :00:46:22.363
00:54:06.118 : :00:54:06.118
01:02:17.651 : :01:02:17.651
01:18:36.003 : :01:18:36.003
01:20:44.131 : :01:20:44.131
01:27:28.243 : :01:27:28.243
01:38:03.711 : :01:38:03.711

-
Цитата:
Цитата:

* Сохранены оригинальные чаптеры как на Blu-ray.
* За ремукс спасибо dsk71

_________________
Показать сообщения:    

Текущее время: Сегодня 05:38

Часовой пояс: GMT



Вы не можете начинать темы
Вы не можете отвечать на сообщения
Вы не можете редактировать свои сообщения
Вы не можете удалять свои сообщения
Вы не можете голосовать в опросах
Вы не можете прикреплять файлы к сообщениям
Вы не можете скачивать файлы