Важное объявление!
У Нас Все раздачи мультитрекерные, при нуле пиров в релизах, можете смело вставать на закачку!
 
Автор Сообщение

HUNTER

Стаж:
4 года 4 месяца
Сообщений:
56848

Репутация: 101

[+] [-]
Вне форума [Профиль] [ЛС]

Крутые яйца / Un gallo con muchos huevos-
Страна: Мексика
Жанр: Мультфильм, комедия
Продолжительность: 01:38:00
Год выпуска: 2015-Перевод: Профессиональный (дублированный)
Русские субтитры: нет-Режиссёр: Габриэль Рива Паласио Алатристе / Gabriel Riva Palacio Alatriste-Роли озвучивали: Бруно Бичир, Карлос Эспехель, Анхелика Вале, Омар Чапарро, Майте Перрони Беорлеги, Серхио Сендель, Нинель Конде, Джейми Эймерих-Описание: Молодой петух Тото хочет добиться в жизни гораздо большего, чем просто каждое утро будить свою ферму. Его мечта — стать знаменитым боксером! Но не зря говорят: «Бойся своих желаний».- l -Качество: DVDRip
Формат: AVI
Видео: 720x400 (16:9), 23.976 fps, XviD 1.2.1, 1925 Kbps
Аудио: 48.0 KHz, AC3 Dolby Digita, 2 ch, 192 Kbps
Субтитры: отсутствуют-- -
-

MediaInfo

General Complete name : C:\Users\Andreas\Downloads\Krutie.yajza.2015.DVDRip.avi Format : AVI Format/Info : Audio Video Interleave File size : 1.46 GiB Duration : 1h 38mn Overall bit rate : 2 126 Kbps Writing application : VirtualDubMod 1.5.10.2 (build 2540/release) Writing library : VirtualDubMod build 2540/release Video #0 ID : 0 Format : MPEG-4 Visual Format profile : Advanced Simple@L5 Format settings, BVOP : 2 Format settings, QPel : No Format settings, GMC : No warppoints Format settings, Matrix : Default (MPEG) Codec ID : XVID Codec ID/Hint : XviD Duration : 1h 38mn Bit rate : 1 925 Kbps Width : 720 pixels Height : 400 pixels Display aspect ratio : 16:9 Frame rate : 23.976 fps Color space : YUV Chroma subsampling : 4:2:0 Bit depth : 8 bits Scan type : Progressive Compression mode : Lossy Bits/(Pixel*Frame) : 0.279 Stream size : 1.32 GiB (91%) Writing library : XviD 1.2.1 (UTC 2008-12-04) Audio #1 ID : 1 Format : AC-3 Format/Info : Audio Coding 3 Mode extension : CM (complete main) Format settings, Endianness : Big Codec ID : 2000 Duration : 1h 38mn Bit rate mode : Constant Bit rate : 192 Kbps Channel(s) : 2 channels Channel positions : Front: L R Sampling rate : 48.0 KHz Bit depth : 16 bits Compression mode : Lossy Stream size : 135 MiB (9%) Alignment : Split accross interleaves Interleave, duration : 42 ms (1.00 video frame) Interleave, preload duration : 500 ms

Скриншоты


_________________
Показать сообщения:    

Текущее время: Сегодня 01:30

Часовой пояс: GMT



Вы не можете начинать темы
Вы не можете отвечать на сообщения
Вы не можете редактировать свои сообщения
Вы не можете удалять свои сообщения
Вы не можете голосовать в опросах
Вы не можете прикреплять файлы к сообщениям
Вы не можете скачивать файлы
Наши партнеры: интернет магазин Ивановского трикотажа textilla.ru