Важное объявление!
У Нас Все раздачи мультитрекерные, при нуле пиров в релизах, можете смело вставать на закачку!
 
Автор Сообщение

HUNTER

Стаж:
4 года 4 месяца
Сообщений:
56822

Репутация: 101

[+] [-]
Вне форума [Профиль] [ЛС]

Крутые меры / Bastille Day-
Страна: Великобритания, Франция, США
Студия: Canal+
Жанр: Боевик, драма
Год выпуска: 2016
Продолжительность: 01:39:57
Перевод: Одноголосый закадровый Д. Есарев
Cубтитры: Английские
Оригинальная аудиодорожка: Английский
Режиссер: Джеймс Уоткинс / James Watkins
В ролях: Идрис Эльба, Ричард Мэдден, Келли Райлли, Шарлотта Ле Бон, Анатол Юсеф, Хорхе Леон Мартинес, Карл Фаррер, Хосе Гарсиа, Александр Купер, Эрик Эбони
Описание: Ловкий карманник Майкл Мэйсон привлекает внимание полиции и спецслужб, когда крадет сумку, содержащую гораздо больше, чем просто бумажник. На его след выходит дерзкий и резкий спецагент ЦРУ Шон Брайар. Вдвоем они становятся мишенью тайной преступной организации и в течение суток должны вывести злоумышленников на чистую воду.-Рейтинг
[img]https://rating.kinopoisk.ru/678233.gif[/img]-Сэмпл
Тип релиза: BDRip 720p
Контейнер: MKV
Видео: 1280x536 (2,40:1), 23.976 fps, x264, ~5537 kbps | Encode by VietHD
Аудио 1: Russian: 48 kHz, AC3, 3/2 (L,C,R,l,r) + LFE ch, ~640 kbps | Одноголосый закадровый, Д. Есарев
Аудио 2: English: 48 kHz, AC3, 3/2 (L,C,R,l,r) + LFE ch, ~640 kbps
Субтитры: Английские (Full, SDH)
Формат субтитров: softsub (SRT)

Дополнительно

Перевод Д. Есарева, доступен благодаря ресурсу "Переулок Переводмана". Заказ перевода Прохожий, ana2363, guinness, RW, Aniskin50, Loki1982. Работа со звуком Переводман.
Внимание! В переводе присутствует ненормативная лексика.

MediaInfo

Общее
Unique ID : 185222584695563298065884341668348497190 (0x8B58927D48FB1911BA02F3936BA10D26)
Complete name : E:\video_rutracker\Bastille.Day.2016.720p.BluRay.Rus.Eng.x264.mkv
Format : Matroska
Format version : Version 2
File size : 4,86 Гбайт
Duration : 1 ч. 39 м.
Overall bit rate : 6956 Кбит/сек
Movie name : Bastille Day 2016 720p | RuTracker | igrok2012
Encoded date : UTC 2016-08-31 18:15:38
Writing application : mkvmerge v8.3.0 ('Over the Horizon') 64bit
Writing library : libebml v1.3.1 + libmatroska v1.4.2
Cover : Yes
Attachments : cover.jpg
Видео
ID : 1
Format : AVC
Format/Info : Advanced Video Codec
Format profile : High@L4.1
Format settings, CABAC : Да
Format settings, ReFrames : 12 кадров
Codec ID : V_MPEG4/ISO/AVC
Duration : 1 ч. 39 м.
Bit rate : 5537 Кбит/сек
Width : 1280 пикселей
Height : 536 пикселей
Display aspect ratio : 2,40:1
Frame rate mode : Постоянный
Frame rate : 24,000 кадра/сек
Color space : YUV
Chroma subsampling : 4:2:0
Bit depth : 8 бит
Scan type : Прогрессивная
Bits/(Pixel*Frame) : 0.336
Stream size : 3,87 Гбайт (80%)
Title : Encode by VietHD
Writing library : x264 core 148 r2705.16 d50a22e VietHD_Custom_64
Encoding settings : cabac=1 / ref=12 / deblock=1:-3:-3 / analyse=0x3:0x133 / me=umh / subme=10 / psy=1 / fade_compensate=0.00 / psy_rd=1.04:0.00 / mixed_ref=1 / me_range=24 / chroma_me=1 / trellis=2 / 8x8dct=1 / cqm=0 / deadzone=21,11 / fast_pskip=0 / chroma_qp_offset=-2 / threads=12 / lookahead_threads=2 / sliced_threads=0 / nr=0 / decimate=0 / interlaced=0 / bluray_compat=0 / constrained_intra=0 / fgo=0 / bframes=7 / b_pyramid=2 / b_adapt=2 / b_bias=0 / direct=3 / weightb=1 / open_gop=0 / weightp=2 / keyint=250 / keyint_min=24 / scenecut=40 / intra_refresh=0 / rc_lookahead=60 / rc=crf / mbtree=0 / crf=15.3000 / qcomp=0.65 / qpmin=0:0:0 / qpmax=69:69:69 / qpstep=4 / vbv_maxrate=62500 / vbv_bufsize=78125 / crf_max=0.0 / nal_hrd=none / filler=0 / ip_ratio=1.30 / pb_ratio=1.20 / aq=3:0.80 / aq-sensitivity=10.00 / aq-factor=1.00:1.00:1.00 / aq2=0 / aq3=0
Language : English
Default : Да
Forced : Нет
Color range : Limited
Matrix coefficients : BT.709
Аудио #1
ID : 2
Format : AC-3
Format/Info : Audio Coding 3
Mode extension : CM (complete main)
Format settings, Endianness : Big
Codec ID : A_AC3
Duration : 1 ч. 39 м.
Bit rate mode : Постоянный
Bit rate : 640 Кбит/сек
Channel(s) : 6 каналов
Channel positions : Front: L C R, Side: L R, LFE
Sampling rate : 48,0 КГц
Frame rate : 31,250 кадров/сек (1536 spf)
Compression mode : С потерями
Stream size : 458 Мбайт (9%)
Title : Одноголосый закадровый, Д. Есарев
Language : Russian
Default : Да
Forced : Нет
Аудио #2
ID : 3
Format : AC-3
Format/Info : Audio Coding 3
Mode extension : CM (complete main)
Format settings, Endianness : Big
Codec ID : A_AC3
Duration : 1 ч. 39 м.
Bit rate mode : Постоянный
Bit rate : 640 Кбит/сек
Channel(s) : 6 каналов
Channel positions : Front: L C R, Side: L R, LFE
Sampling rate : 48,0 КГц
Frame rate : 31,250 кадров/сек (1536 spf)
Compression mode : С потерями
Stream size : 458 Мбайт (9%)
Language : English
Default : Нет
Forced : Нет
Текст #1
ID : 4
Format : UTF-8
Codec ID : S_TEXT/UTF8
Codec ID/Info : UTF-8 Plain Text
Language : English
Default : Нет
Forced : Нет
Текст #2
ID : 5
Format : UTF-8
Codec ID : S_TEXT/UTF8
Codec ID/Info : UTF-8 Plain Text
Title : SDH
Language : English
Default : Нет
Forced : Нет
Меню
00:00:00.000 : en:00:00:00.000
00:08:06.625 : en:00:08:06.625
00:16:39.833 : en:00:16:39.833
00:24:20.625 : en:00:24:20.625
00:33:04.625 : en:00:33:04.625
00:41:03.625 : en:00:41:03.625
00:48:37.625 : en:00:48:37.625
00:57:03.417 : en:00:57:03.417
01:07:59.000 : en:01:07:59.000
01:16:54.625 : en:01:16:54.625
01:21:43.000 : en:01:21:43.000
01:25:26.833 : en:01:25:26.833

Скриншоты


_________________
Показать сообщения:    

Текущее время: Сегодня 08:02

Часовой пояс: GMT



Вы не можете начинать темы
Вы не можете отвечать на сообщения
Вы не можете редактировать свои сообщения
Вы не можете удалять свои сообщения
Вы не можете голосовать в опросах
Вы не можете прикреплять файлы к сообщениям
Вы не можете скачивать файлы