Важное объявление!
У Нас Все раздачи мультитрекерные, при нуле пиров в релизах, можете смело вставать на закачку!
 
Автор Сообщение

HUNTER

Стаж:
4 года 4 месяца
Сообщений:
56829

Репутация: 101

[+] [-]
Вне форума [Профиль] [ЛС]

Крутые виражи / Cool Runnings
Страна: США
Жанр: комедия, приключения, семейный, спорт
Год выпуска: 1993
Продолжительность: 01:38:11
Перевод: Профессиональный (двухголосый закадровый)
Перевод 2: Авторский (одноголосый закадровый) В.Горчаков
Перевод 3: Авторский (одноголосый закадровый) В.Дохалов
Перевод 4: Авторский (одноголосый закадровый) А.Пронин
Перевод 5: Одноголосый закадровый Толстобров
Cубтитры: русские, английские
Оригинальная аудиодорожка: английский
Режиссер: Джон Тёртелтауб / Jon Turteltaub
В ролях: Леон (Derice Bannock), Даг Э. Даг (Sanka Coffie), Роул Д. Льюис (Junior Bevil), Мэлик Йоба (Yul Brenner), Джон Кэнди (Irving 'Irv' Blitzer), Рэймонд Дж. Бэрри (Kurt Hemphill), Питер Аутербридж (Josef Grool), Пол Койер (Roger), Лэрри Гилмен (Larry), Чарльз Хайатт (Whitby Bevil Sr.), Winston Stona (Coolidge), Bertina Macauley (Joy Bannock)
Описание: Четверо спортсменов из Ямайки мечтают не много не мало - об участии в Олимпиаде. Причем им не важно в каком виде спорта выступать. А почему бы не бобслей!?
Чего только не сделаешь на пути к заветной мечте. Пусть даже этот путь ледяной, а мчаться приходится в непонятном снаряде.
Доп. информация: Захват видео с канала WOWOW
Сравнение с этой раздачей http://rutracker.org/forum/viewtopic.php?t=3789966
http://screenshotcomparison.com/comparison/148107
Сэмпл: https://yadi.sk/i/vgWlA1WljxtKb
Тип релиза: HDTV 1080i
Контейнер: TS
Видео: 1920x1080i at 23.976 fps, MPEG-2, 20.1 Mbps avg
Аудио 1: Russian: 48 kHz, AC3, 2/0 (L,R) ch, ~224.00 kbps avg |Двухголосый закадровый|
Аудио 2: Russian: 48 kHz, AC3, 3/2 (L,C,R,l,r) + LFE ch, ~448.00 kbps avg |Одноголосый закадровый, В.Горчаков|
Аудио 3: Russian: 48 kHz, AC3, 2/0 (L,R) ch, ~224.00 kbps avg |Одноголосый закадровый, В.Дохалов|
Аудио 4: Russian: 48 kHz, AC3, 2/0 (L,R) ch, ~224.00 kbps avg |Одноголосый закадровый, А.Пронин|
Аудио 5: Russian: 48 kHz, AC3, 3/2 (L,C,R,l,r) + LFE ch, ~448.00 kbps avg |Одноголосый закадровый, Толстобров|
Аудио 6: English: 48 kHz, AC3, 3/2 (L,C,R,l,r) + LFE ch, ~448.00 kbps avg
Формат субтитров: prerendered (Blu-ray/PGS/SUP)

MediaInfo

General
ID : 1 (0x1)
Format : MPEG-TS
File size : 15.9 GiB
Duration : 1h 38mn
Overall bit rate mode : Variable
Overall bit rate : 23.2 Mbps
Maximum Overall bit rate : 35.5 Mbps
Video
ID : 4113 (0x1011)
Menu ID : 1 (0x1)
Format : MPEG Video
Format version : Version 2
Format profile : Main@High
Format settings, BVOP : Yes
Format settings, Matrix : Custom
Format settings, GOP : M=3, N=12
Codec ID : 2
Duration : 1h 38mn
Bit rate mode : Variable
Bit rate : 20.1 Mbps
Maximum bit rate : 24.0 Mbps
Width : 1 920 pixels
Height : 1 080 pixels
Display aspect ratio : 16:9
Frame rate : 23.976 fps
Color space : YUV
Chroma subsampling : 4:2:0
Bit depth : 8 bits
Scan type : Interlaced
Compression mode : Lossy
Bits/(Pixel*Frame) : 0.403
Time code of first frame : 02:14:38;28
Time code source : Group of pictures header
GOP, Open/Closed : Open
Stream size : 13.8 GiB (86%)
Color primaries : BT.709
Transfer characteristics : BT.709
Matrix coefficients : BT.709
Audio #1
ID : 4352 (0x1100)
Menu ID : 1 (0x1)
Format : AC-3
Format/Info : Audio Coding 3
Mode extension : CM (complete main)
Format settings, Endianness : Big
Codec ID : 129
Duration : 1h 38mn
Bit rate mode : Constant
Bit rate : 224 Kbps
Channel(s) : 2 channels
Channel positions : Front: L R
Sampling rate : 48.0 KHz
Compression mode : Lossy
Stream size : 157 MiB (1%)
Language : Russian
Audio #2
ID : 4353 (0x1101)
Menu ID : 1 (0x1)
Format : AC-3
Format/Info : Audio Coding 3
Mode extension : CM (complete main)
Format settings, Endianness : Big
Codec ID : 129
Duration : 1h 38mn
Bit rate mode : Constant
Bit rate : 448 Kbps
Channel(s) : 6 channels
Channel positions : Front: L C R, Side: L R, LFE
Sampling rate : 48.0 KHz
Compression mode : Lossy
Stream size : 314 MiB (2%)
Language : Russian
Audio #3
ID : 4354 (0x1102)
Menu ID : 1 (0x1)
Format : AC-3
Format/Info : Audio Coding 3
Mode extension : CM (complete main)
Format settings, Endianness : Big
Codec ID : 129
Duration : 1h 38mn
Bit rate mode : Constant
Bit rate : 224 Kbps
Channel(s) : 2 channels
Channel positions : Front: L R
Sampling rate : 48.0 KHz
Compression mode : Lossy
Stream size : 157 MiB (1%)
Language : Russian
Audio #4
ID : 4355 (0x1103)
Menu ID : 1 (0x1)
Format : AC-3
Format/Info : Audio Coding 3
Mode extension : CM (complete main)
Format settings, Endianness : Big
Codec ID : 129
Duration : 1h 38mn
Bit rate mode : Constant
Bit rate : 224 Kbps
Channel(s) : 2 channels
Channel positions : Front: L R
Sampling rate : 48.0 KHz
Compression mode : Lossy
Stream size : 157 MiB (1%)
Language : Russian
Audio #5
ID : 4356 (0x1104)
Menu ID : 1 (0x1)
Format : AC-3
Format/Info : Audio Coding 3
Mode extension : CM (complete main)
Format settings, Endianness : Big
Codec ID : 129
Duration : 1h 38mn
Bit rate mode : Constant
Bit rate : 448 Kbps
Channel(s) : 6 channels
Channel positions : Front: L C R, Side: L R, LFE
Sampling rate : 48.0 KHz
Compression mode : Lossy
Stream size : 314 MiB (2%)
Language : Russian
Audio #6
ID : 4357 (0x1105)
Menu ID : 1 (0x1)
Format : AC-3
Format/Info : Audio Coding 3
Mode extension : CM (complete main)
Format settings, Endianness : Big
Codec ID : 129
Duration : 1h 38mn
Bit rate mode : Constant
Bit rate : 448 Kbps
Channel(s) : 6 channels
Channel positions : Front: L C R, Side: L R, LFE
Sampling rate : 48.0 KHz
Compression mode : Lossy
Stream size : 314 MiB (2%)
Language : English
Text #1
ID : 4608 (0x1200)
Menu ID : 1 (0x1)
Format : PGS
Codec ID : 144
Language : Russian
Text #2
ID : 4609 (0x1201)
Menu ID : 1 (0x1)
Format : PGS
Codec ID : 144
Language : English

Скриншоты


_________________
Показать сообщения:    

Текущее время: Сегодня 16:18

Часовой пояс: GMT



Вы не можете начинать темы
Вы не можете отвечать на сообщения
Вы не можете редактировать свои сообщения
Вы не можете удалять свои сообщения
Вы не можете голосовать в опросах
Вы не можете прикреплять файлы к сообщениям
Вы не можете скачивать файлы