Важное объявление!
У Нас Все раздачи мультитрекерные, при нуле пиров в релизах, можете смело вставать на закачку!
 
Автор Сообщение

HUNTER

Стаж:
4 года 4 месяца
Сообщений:
56848

Репутация: 101

[+] [-]
Вне форума [Профиль] [ЛС]

Крупье / Croupier
-Страна: Франция, Великобритания, Германия, Ирландия
Жанр: драма, криминал
Год выпуска: 1998
Продолжительность: 01:34:50-Перевод 1: Профессиональный (двухголосый) TV1000 Action
Перевод 2: Одноголосый закадровый-Cубтитры: английские
Оригинальная аудиодорожка: английский-Режиссер: Майк Ходжис / Mike Hodges-В ролях: Клайв Оуэн, Ник Рединг, Николас Болл, Александр Мортон, Джина МакКи, Дэвид Хэмилтон-Описание:
Джек Манфред — начинающий писатель, который, страдая от писательского блока, устраивается на работу крупье в казино, чтобы поддержать свои литературные амбиции. Джек наблюдает за игроками с тем же чувством холодной отстраненности, с каким относится к написанию своего романа. Он сам никогда не делает ставок, но когда соблазнительная красотка и завсегдатай казино вовлекают его в опасную, но потенциально выгодную аферу, Джек считает, что фортуна на его стороне. Он и не подозревает, что скоро соблазны игры увлекут его гораздо сильнее, чем он мог себе представить.-Доп. информация: за блюрик спасибо igor nisan-Сэмпл: Скачать-Тип релиза: BDRemux 1080p
Контейнер: MKV-Видео: MPEG-4 AVC Video; 27411 kbps; 1080p; 23.976 fps; 16:9; High Profile 4.1
Аудио 1: Russian; AC3; 48.0 KHz; 2ch; 192 Kbps MVO
Аудио 2: Russian; AC3; 48.0 KHz; 2ch; 192 Kbps VO
Аудио 3: English; FLAC; 48.0 KHz; 2ch; 1 392 Kbps

MediaInfo

Format : Matroska
Format version : Version 4 / Version 2
File size : 19.2 GiB
Duration : 1h 34mn
Overall bit rate mode : Variable
Overall bit rate : 29.1 Mbps
Encoded date : UTC 2016-09-29 18:06:08
Writing application : mkvmerge v8.3.0 ('Over the Horizon') 64bit
Writing library : libebml v1.3.1 + libmatroska v1.4.2
Video
ID : 1
Format : AVC
Format/Info : Advanced Video Codec
Format profile : High@L4.1
Format settings, CABAC : Yes
Format settings, ReFrames : 3 frames
Format settings, GOP : M=1, N=23
Codec ID : V_MPEG4/ISO/AVC
Duration : 1h 34mn
Bit rate mode : Variable
Bit rate : 27.3 Mbps
Maximum bit rate : 36.0 Mbps
Width : 1 920 pixels
Height : 1 080 pixels
Display aspect ratio : 16:9
Frame rate mode : Constant
Frame rate : 23.976 (24000/1001) fps
Color space : YUV
Chroma subsampling : 4:2:0
Bit depth : 8 bits
Scan type : Progressive
Bits/(Pixel*Frame) : 0.549
Stream size : 18.1 GiB (94%)
Default : Yes
Forced : No
Color range : Limited
Color primaries : BT.709
Transfer characteristics : BT.709
Matrix coefficients : BT.709
Audio #1
ID : 2
Format : AC-3
Format/Info : Audio Coding 3
Mode extension : CM (complete main)
Format settings, Endianness : Big
Codec ID : A_AC3
Duration : 1h 33mn
Bit rate mode : Constant
Bit rate : 192 Kbps
Channel(s) : 2 channels
Channel positions : Front: L R
Sampling rate : 48.0 KHz
Frame rate : 31.250 fps (1536 spf)
Compression mode : Lossy
Delay relative to video : 29ms
Stream size : 129 MiB (1%)
Title : DVO TV1000 Action
Language : Russian
Default : Yes
Forced : No
Audio #2
ID : 3
Format : AC-3
Format/Info : Audio Coding 3
Mode extension : CM (complete main)
Format settings, Endianness : Big
Codec ID : A_AC3
Duration : 1h 33mn
Bit rate mode : Constant
Bit rate : 192 Kbps
Channel(s) : 2 channels
Channel positions : Front: L R
Sampling rate : 48.0 KHz
Frame rate : 31.250 fps (1536 spf)
Compression mode : Lossy
Delay relative to video : 29ms
Stream size : 129 MiB (1%)
Title : VO
Language : Russian
Default : No
Forced : No
Audio #3
ID : 4
Format : FLAC
Format/Info : Free Lossless Audio Codec
Codec ID : A_FLAC
Duration : 1h 33mn
Bit rate mode : Variable
Bit rate : 1 400 Kbps
Channel(s) : 2 channels
Channel positions : Front: L R
Sampling rate : 48.0 KHz
Frame rate : 41.667 fps (1152 spf)
Bit depth : 24 bits
Delay relative to video : 13ms
Stream size : 934 MiB (5%)
Writing library : libFLAC 1.3.1 (UTC 2014-11-25)
Language : English
Default : No
Forced : No
Text
ID : 5
Format : UTF-8
Codec ID : S_TEXT/UTF8
Codec ID/Info : UTF-8 Plain Text
Duration : 1h 30mn
Bit rate : 59 bps
Count of elements : 1400
Stream size : 39.1 KiB (0%)
Language : English
Default : No
Forced : No

Скриншоты


_________________
Показать сообщения:    

Текущее время: Сегодня 22:37

Часовой пояс: GMT



Вы не можете начинать темы
Вы не можете отвечать на сообщения
Вы не можете редактировать свои сообщения
Вы не можете удалять свои сообщения
Вы не можете голосовать в опросах
Вы не можете прикреплять файлы к сообщениям
Вы не можете скачивать файлы
Наши партнеры: интернет магазин Ивановского трикотажа textilla.ru