Важное объявление!
У Нас Все раздачи мультитрекерные, при нуле пиров в релизах, можете смело вставать на закачку!
 
Автор Сообщение

HUNTER

Стаж:
4 года 4 месяца
Сообщений:
56790

Репутация: 101

[+] [-]
Вне форума [Профиль] [ЛС]

Кругосветное путешествие Твити / Tweety's High-Flying Adventure
Страна: США
Жанр: мультфильм, комедия, семейный
Продолжительность: 01:11:53
Год выпуска: 2000
Перевод: Авторский (одноголосый закадровый) Андрей Дольский
Cубтитры: отсутствуют-Слоган «You're in for a TWEMENDOUS ride as TWEETY takes off in his VERY FIRST MOVIE!»-Режиссёр: Карл Тордж / Karl Toerge, Чарльз Виссер / Charles Visser, Джеймс Т. Уокер / James T. Walker
Роли озвучивали: Джо Аляски, Джефф Беннетт, Джули Бернштейн, Стивен Бернштейн, Джим Каммингс, Джун Форэй, Стэн Фреберг, Ти’Кейя Кристел Кеймэ, Тресс МакНилл-Описание:
Полнометражный анимационный фильм с маленькой желтой птичкой в главной роли. Когда полковник Римфайр из Клуба Чокнутых заявил о том, что кошки - самые умные животные, Бабуля, в надежде собрать достаточное количество денег на спасение детского парка, заключает пари о том, что ее птичка Твити сможет облететь вокруг света за 80 дней, собрав при этом отпечатки 80-ти кошачьих лап. Сильвестр все еще жаждет полакомится Твити и испытывает яростное негодование от одной мысли о том, что другой кот сможет съесть птичку раньше него. По этой причине он клянется следовать за Твити по всему миру и самостоятельно поймать желанную канарейку.
-
Качество: DVDRip
Формат: AVI
Видео: 640x480 (1.33:1), 29.970 fps, XviD build 73 ~1309 kbps avg, 0.14 bit/pixel
Аудио: 48 kHz, MPEG Layer 3, 2 ch, ~128.00 kbps avg
Автор рипа: domin8
Исходник DVD: http://rutracker.org/forum/viewtopic.php?t=4284004

Подробные технические данные

General Complete name : G:\03\Tweety's_High-Flying_Adventure_DVDRip.avi Format : AVI Format/Info : Audio Video Interleave File size : 745 MiB Duration : 1h 11mn Overall bit rate : 1 449 Kbps Movie name : Tweety's High-Flying Adventure [ripped by domin8] Genre : Child's Writing application : VirtualDubMod 1.5.10.3 | www.virtualdub-fr.org || (build 2550/release) Original source form/Name : Cartoon Video #0 ID : 0 Format : MPEG-4 Visual Format profile : Advanced Simple@L5 Format settings, BVOP : Yes Format settings, QPel : No Format settings, GMC : No warppoints Format settings, Matrix : Custom Codec ID : XVID Codec ID/Hint : XviD Duration : 1h 11mn Bit rate : 1 310 Kbps Width : 640 pixels Height : 480 pixels Display aspect ratio : 4:3 Frame rate : 29.970 fps Color space : YUV Chroma subsampling : 4:2:0 Bit depth : 8 bits Scan type : Progressive Bits/(Pixel*Frame) : 0.142 Stream size : 673 MiB (90%) Writing library : XviD 73 Audio #1 ID : 1 Format : MPEG Audio Format version : Version 1 Format profile : Layer 3 Codec ID : 55 Codec ID/Hint : MP3 Duration : 1h 11mn Bit rate mode : Constant Bit rate : 128 Kbps Channel(s) : 2 channels Sampling rate : 48.0 KHz Stream size : 65.8 MiB (9%) Alignment : Aligned on interleaves Interleave, duration : 33 ms (1.00 video frame) Interleave, preload duration : 504 ms Title : Russian Writing library : LAME3.99r Encoding settings : -m s -V 4 -q 0 -lowpass 17 -b 128

Скриншоты


_________________
Показать сообщения:    

Текущее время: Сегодня 10:52

Часовой пояс: GMT



Вы не можете начинать темы
Вы не можете отвечать на сообщения
Вы не можете редактировать свои сообщения
Вы не можете удалять свои сообщения
Вы не можете голосовать в опросах
Вы не можете прикреплять файлы к сообщениям
Вы не можете скачивать файлы