Важное объявление!
У Нас Все раздачи мультитрекерные, при нуле пиров в релизах, можете смело вставать на закачку!
 
Автор Сообщение

HUNTER

Стаж:
4 года 4 месяца
Сообщений:
56772

Репутация: 101

[+] [-]
Вне форума [Профиль] [ЛС]

Круглый год
Страна: Россия
Жанр: Мультфильм
Продолжительность: 00:38:43
Год выпуска: 2008
субтитры: нет
Режиссёр: Вероника Федорова
Описание: «Круглый год» — 12 серий-месяцев! Один из главных персонажей цикла — удивительный кот, который в зависимости от времени года становится Летним, Осенним, Зимним, Весенним… В путешествие по месяцам вместе с котами отправляются Снегири, Курица и цыплятами, Лошадка Тучка, Агафон, Ванечка Пряников и Орехьевна. В основе сценария сериала рассказы знаменитого детского писателя Юрия Коваля, причем несколько серий озвучены голосом самого автора. И, конечно, приключения веселей с музыкой. За саундтрек отвечали самые ответственные композиторы: Моцарт, Гайдн, Вивальди...- | | Совместный релиз: и
Предыдущие и альтернативные раздачи-Качество: DVDRip
Формат: AVI
Видео: 720x528 (1.36:1), 25 fps, XviD build 73 ~2292 kbps avg, 0.24 bit/pixel
Аудио: 48 kHz, AC3, 2/0 (L,R) ch, ~224 kbps
Субтитры: отсутствуют

Список серий


WIKI
Список серий:
01. Январь - Снегири и коты
02. Февраль - Снежный всадник
03. Март - Весенний кот
04. Апрель – Певцы
05. Май – Лошадка
06. Июнь – Орехьевна
07. Июль - Летний кот
08. Август – Везуха
09. Сентябрь - Осеннее котяро
10. Октябрь – Листобой
11. Ноябрь – Орион
12. Декабрь - Снеги-белы-Доп. информация: по книге Юрия Коваля "Круглый Год, рассказы"
Озвучивание
Текст от автора: Юрий Коваль («Лошадка», «Снеги белы», «Снежный всадник»), Даниил Спиваковский («Орион»), Сергей Щипачёв («Летний кот», «Осенний кот», «Весенний кот», «Снегири и коты», «Орехьевна», «Везуха», «Листобой»)
Певцы: Александр Пожаров и Сергей Олексяк («Певцы»)
Орехьевна: Голубева Зинаида Яковлевна («Снеги белы»)
Музыка: Антонио Вивальди, Вольфганг Амадей Моцарт, Йозеф Гайдн
Аккордеон: Сергей Романов
Награды и номинации
2010 — XV Открытый Российский фестиваль анимационного кино в Суздале — Лучшее изобразительное решение (художнику-постановщику Анастасии Жакулиной за цикл «Круглый год», серии «Снеги белы» и «Снегири и коты»)
2009 — Международный фестиваль анимационных фильмов «Крок» — Диплом «За самую красивую осень» в категории «Прикладная и заказная анимация» (серия «Листобой»)

Отчет Медиаинфо

GeneralComplete name : Круглый год_DVDRip_Olu6ka.aviFormat : AVIFormat/Info : Audio Video InterleaveFile size : 700 MiBDuration : 38mn 43sOverall bit rate : 2 526 KbpsWriting application : VirtualDubModRus 1.5.10.2 (build 2542/release)Writing library : VirtualDubMod build 2542/release
VideoID : 0Format : MPEG-4 VisualFormat profile : Advanced Simple@L5Format settings, BVOP : 1Format settings, QPel : NoFormat settings, GMC : No warppointsFormat settings, Matrix : CustomCodec ID : XVIDCodec ID/Hint : XviDDuration : 38mn 43sBit rate : 2 292 KbpsWidth : 720 pixelsHeight : 528 pixelsDisplay aspect ratio : 4:3Frame rate : 25.000 fpsColor space : YUVChroma subsampling : 4:2:0Bit depth : 8 bitsScan type : ProgressiveCompression mode : LossyBits/(Pixel*Frame) : 0.241Stream size : 635 MiB (91%)Writing library : XviD 73
AudioID : 1Format : AC-3Format/Info : Audio Coding 3Mode extension : CM (complete main)Format settings, Endianness : BigCodec ID : 2000Duration : 38mn 43sBit rate mode : ConstantBit rate : 224 KbpsChannel count : 2 channelsChannel positions : Front: L RSampling rate : 48.0 KHzBit depth : 16 bitsCompression mode : LossyStream size : 62.0 MiB (9%)Alignment : Split accross interleavesInterleave, duration : 40 ms (1.00 video frame)Interleave, preload duration : 500 ms
Спасибо zritel за исходник! Огромная признательность grandmajor за исправление ошибок со звуком на DVD!

_________________
Показать сообщения:    

Текущее время: Сегодня 11:32

Часовой пояс: GMT



Вы не можете начинать темы
Вы не можете отвечать на сообщения
Вы не можете редактировать свои сообщения
Вы не можете удалять свои сообщения
Вы не можете голосовать в опросах
Вы не можете прикреплять файлы к сообщениям
Вы не можете скачивать файлы