Важное объявление!
У Нас Все раздачи мультитрекерные, при нуле пиров в релизах, можете смело вставать на закачку!
 
Автор Сообщение

HUNTER

Стаж:
4 года 4 месяца
Сообщений:
56733

Репутация: 101

[+] [-]
Вне форума [Профиль] [ЛС]

Кролик из Карино / Carino Coni
Страна: Япония
Год выпуска: 2014 г.
Жанр: приключения
Тип: TV
Продолжительность: 3 мин.
Режиссер: Абэ Юичи
Студия: ROBOT
Описание: Сюжет рассказывает о повседневной жизни кролика Кони и других зверьков маскотной внешности, живущих в маленькой деревеньке Карино, что в Италии.
Качество: HDTVRip
Тип релиза: Без хардсаба
Формат видео: MP4
Наличие линковки: Нет
Автор рипа: Moe-Raws
Видео: H264, 8 bits, 1280x720, 3399 kbps, 23.976fps
Аудио: AAC, 2ch, 186 kbps, 48kHz Язык Японский
Субтитры: не требуются
Подробные тех. данные
Format : MPEG-4Format profile : Base MediaCodec ID : isomFile size : 74.4 MiBDuration : 2mn 54sOverall bit rate mode : VariableOverall bit rate : 3 568 Kbps
VideoID : 1Format : AVCFormat/Info : Advanced Video CodecFormat profile : High@L4.1Format settings, CABAC : YesFormat settings, ReFrames : 4 framesCodec ID : avc1Codec ID/Info : Advanced Video CodingDuration : 2mn 54sBit rate : 3 399 KbpsMaximum bit rate : 10.1 MbpsWidth : 1 280 pixelsHeight : 720 pixelsDisplay aspect ratio : 16:9Frame rate mode : ConstantFrame rate : 23.976 fpsColor space : YUVChroma subsampling : 4:2:0Bit depth : 8 bitsScan type : ProgressiveBits/(Pixel*Frame) : 0.154Stream size : 70.9 MiB (95%)Writing library : x264 core 140 r2377+40 929f149 tMod [8-bit@all X86_64]Encoding settings : cabac=1 / ref=4 / deblock=1:2:-2 / analyse=0x3:0x113 / me=umh / subme=9 / psy=1 / fade_compensate=0.00 / psy_rd=1.00:0.00 / mixed_ref=1 / me_range=32 / chroma_me=1 / trellis=2 / 8x8dct=1 / cqm=0 / deadzone=21,11 / fast_pskip=1 / chroma_qp_offset=-2 / threads=16 / lookahead_threads=1 / sliced_threads=0 / nr=0 / decimate=1 / interlaced=0 / bluray_compat=0 / constrained_intra=0 / fgo=0 / bframes=9 / b_pyramid=2 / b_adapt=2 / b_bias=0 / direct=3 / weightb=1 / open_gop=0 / weightp=2 / keyint=240 / keyint_min=24 / scenecut=40 / intra_refresh=0 / rc=crf / mbtree=0 / crf=19.0000 / qcomp=0.70 / qpmin=0:0:0 / qpmax=69:69:69 / qpstep=4 / ip_ratio=1.40 / pb_ratio=1.30 / aq=1:0.85 / aq-sensitivity=10.00 / aq-factor=1.00:1.00:1.00 / aq2=0 / aq3=0
AudioID : 2Format : AACFormat/Info : Advanced Audio CodecFormat profile : LCCodec ID : 40Duration : 2mn 54sBit rate mode : VariableBit rate : 166 KbpsMaximum bit rate : 189 KbpsChannel count : 2 channelsChannel positions : Front: L RSampling rate : 48.0 KHzCompression mode : LossyDelay relative to video : 83msStream size : 3.46 MiB (5%)
Список серий
1. Moving House
2. I Met Tobi
3. Frozen Blu
4. Biancas Visit
5. All Alone
6. Fabio Grows Up
7. Soccer for Two / Dancing
8. Balloon Fun / Sprouts / Tobis Not So Heavy / Tobi Flies / Jogging
9. What's A Tao?
10. Ser In The Cave
Скриншоты

_________________
Показать сообщения:    

Текущее время: Сегодня 01:20

Часовой пояс: GMT



Вы не можете начинать темы
Вы не можете отвечать на сообщения
Вы не можете редактировать свои сообщения
Вы не можете удалять свои сообщения
Вы не можете голосовать в опросах
Вы не можете прикреплять файлы к сообщениям
Вы не можете скачивать файлы