Важное объявление!
У Нас Все раздачи мультитрекерные, при нуле пиров в релизах, можете смело вставать на закачку!
 
Автор Сообщение

HUNTER

Стаж:
4 года 4 месяца
Сообщений:
56848

Репутация: 101

[+] [-]
Вне форума [Профиль] [ЛС]

Крокодил Данди 2 / «Crocodile» Dundee II
Страна: Австралия, США
Жанр: боевик, комедия, приключения
Год выпуска: 1988
Продолжительность: 01:51:36
Перевод 1: Профессиональный (дублированный)
Перевод 2: Авторский (одноголосый закадровый) Ю.Живов
Перевод 3: Авторский (одноголосый закадровый) В.Дохалов
Перевод 4: Авторский (одноголосый закадровый) С.Кузнецов
Cубтитры: русские, английские (full, SDH)
Оригинальная аудиодорожка: английский
Режиссер: Джон Корнелл / John Cornell
В ролях: Пол Хоган, Линда Козловски, Джон Майллон, Эрни Динго, Стив Рэкмен, Джерри Скилтон, Гас Мёркюрио, Джим Холт, Алек Уилсон, Мэгги Блинко
Описание: Данди, охотник на крокодилов, сменил австралийский шалаш на американский пентхаус: спит в шелковой пижаме и пьет кофе из японского фарфора. Но шляпу с крокодильими зубами, кожаные штаны и огромный нож за поясом он себе оставил - на всякий случай. Хватит ли этого, чтобы спасти любимую от колумбийской мафии?..

MPAA: PG - Рекомендуется присутствие родителей-
Автор рипа: Vikosol

Тип релиза: BDRip 720p
Контейнер: MKV
Видео: AVC, 1280x546 (2.35:1), 15755 kbps, 23,976 fps, 0,940 bpp
Аудио №1: русский / AC3 / 5.1 / 48 kHz / 384 kbps / 16 bit |DUB|
Аудио №2: русский / DTS / 5.1 / 48 kHz / 1510 kbps / 24 bit | Ю.Живов|
Аудио №3: украинский / AC3 / 2.0 / 48 kHz / 192 kbps / 16 bit |ТК "Новий"|
Аудио №4: русский / AC3 / 2.0 / 48 kHz / 192 kbps / 16 bit | В.Дохалов|
Аудио №5: русский / AC3 / 2.0 / 48 kHz / 192 kbps / 16 bit |С.Кузнецов|
Аудио №6: английский / DTS / 5.1 / 48 kHz / 1510 kbps / 24 bit
Навигация по главам: есть
Формат субтитров: softsub (SRT)
Source vs Encodelog x264
Код:
x264 [info]: frame I:1169  Avg QP:17.52  size:174307
x264 [info]: frame P:26764 Avg QP:18.80  size:116623
x264 [info]: frame B:132630 Avg QP:20.88  size: 76888
x264 [info]: consecutive B-frames:  1.0%  0.7%  1.9% 10.5% 13.4% 32.7% 11.7%  5.7%  6.8%  9.7%  6.0%
MediaInfo
Код:
Format                           : Matroska
Format version                   : Version 4 / Version 2
File size                        : 15.7 GiB
Duration                         : 1h 51mn
Overall bit rate                 : 20.1 Mbps
Movie name                       : Krokodil.Dandi.2.1988.x264.BDRip 720p - Vikosol
Encoded date                     : UTC 2014-05-25 13:00:18
Writing application              : mkvmerge v6.8.0 ('Theme for Great Cities') 64bit built on Mar  2 2014 21:34:26
Writing library                  : libebml v1.3.0 + libmatroska v1.4.1
Video
ID                               : 1
Format                           : AVC
Format/Info                      : Advanced Video Codec
Format profile                   : High@L4.1
Format settings, CABAC           : Yes
Format settings, ReFrames        : 9 frames
Codec ID                         : V_MPEG4/ISO/AVC
Duration                         : 1h 51mn
Bit rate                         : 15.8 Mbps
Width                            : 1 280 pixels
Height                           : 546 pixels
Display aspect ratio             : 2.35:1
Frame rate                       : 23.976 fps
Color space                      : YUV
Chroma subsampling               : 4:2:0
Bit depth                        : 8 bits
Scan type                        : Progressive
Bits/(Pixel*Frame)               : 0.940
Stream size                      : 12.3 GiB (78%)
Writing library                  : x264 core 142 r2409+42 04be48a tMod [8-bit@all X86_64]
Encoding settings                : cabac=1 / ref=9 / deblock=1:-3:-3 / analyse=0x3:0x133 / me=umh / subme=11 / psy=1 / fade_compensate=0.00 / psy_rd=1.00:0.00 / mixed_ref=1 / me_range=32 / chroma_me=1 / trellis=2 / 8x8dct=1 / cqm=0 / deadzone=21,11 / fast_pskip=0 / chroma_qp_offset=-2 / threads=6 / lookahead_threads=1 / sliced_threads=0 / nr=0 / decimate=0 / interlaced=0 / bluray_compat=0 / constrained_intra=0 / fgo=0 / bframes=10 / b_pyramid=2 / b_adapt=2 / b_bias=0 / direct=1 / weightb=1 / open_gop=0 / weightp=2 / keyint=240 / keyint_min=23 / scenecut=40 / intra_refresh=0 / rc_lookahead=60 / rc=crf / mbtree=0 / crf=16.3000 / qcomp=0.70 / qpmin=0:0:0 / qpmax=69:69:69 / qpstep=4 / vbv_maxrate=50000 / vbv_bufsize=62500 / crf_max=0.0 / nal_hrd=none / filler=0 / ip_ratio=1.40 / pb_ratio=1.30 / aq=1:0.70 / aq-sensitivity=10.00 / aq-factor=1.00:1.00:1.00 / aq2=0 / aq3=0
Language                         : English
Audio #1
ID                               : 2
Format                           : AC-3
Format/Info                      : Audio Coding 3
Mode extension                   : CM (complete main)
Codec ID                         : A_AC3
Duration                         : 1h 51mn
Bit rate mode                    : Constant
Bit rate                         : 384 Kbps
Channel(s)                       : 6 channels
Channel positions                : Front: L C R, Side: L R, LFE
Sampling rate                    : 48.0 KHz
Bit depth                        : 16 bits
Compression mode                 : Lossy
Stream size                      : 307 MiB (2%)
Title                            : DUB
Language                         : Russian
Audio #2
ID                               : 3
Format                           : DTS
Format/Info                      : Digital Theater Systems
Codec ID                         : A_DTS
Duration                         : 1h 51mn
Bit rate mode                    : Constant
Bit rate                         : 1 510 Kbps
Channel(s)                       : 6 channels
Channel positions                : Front: L C R, Side: L R, LFE
Sampling rate                    : 48.0 KHz
Bit depth                        : 24 bits
Compression mode                 : Lossy
Stream size                      : 1.18 GiB (7%)
Title                            : Ю.Живов
Language                         : Russian
Audio #3
ID                               : 4
Format                           : AC-3
Format/Info                      : Audio Coding 3
Format profile                   : Dolby Digital
Mode extension                   : CM (complete main)
Codec ID                         : A_AC3
Duration                         : 1h 51mn
Bit rate mode                    : Constant
Bit rate                         : 192 Kbps
Channel(s)                       : 2 channels
Channel positions                : Front: L R
Sampling rate                    : 48.0 KHz
Bit depth                        : 16 bits
Compression mode                 : Lossy
Stream size                      : 153 MiB (1%)
Title                            : ТК "Новий"
Language                         : Ukrainian
Audio #4
ID                               : 5
Format                           : AC-3
Format/Info                      : Audio Coding 3
Format profile                   : Dolby Digital
Mode extension                   : CM (complete main)
Codec ID                         : A_AC3
Duration                         : 1h 51mn
Bit rate mode                    : Constant
Bit rate                         : 192 Kbps
Channel(s)                       : 2 channels
Channel positions                : Front: L R
Sampling rate                    : 48.0 KHz
Bit depth                        : 16 bits
Compression mode                 : Lossy
Stream size                      : 153 MiB (1%)
Title                            : В.Дохалов
Language                         : Russian
Audio #5
ID                               : 6
Format                           : AC-3
Format/Info                      : Audio Coding 3
Format profile                   : Dolby Digital
Mode extension                   : CM (complete main)
Codec ID                         : A_AC3
Duration                         : 1h 51mn
Bit rate mode                    : Constant
Bit rate                         : 192 Kbps
Channel(s)                       : 2 channels
Channel positions                : Front: L R
Sampling rate                    : 48.0 KHz
Bit depth                        : 16 bits
Compression mode                 : Lossy
Stream size                      : 153 MiB (1%)
Title                            : С.Кузнецов
Language                         : Russian
Audio #6
ID                               : 7
Format                           : DTS
Format/Info                      : Digital Theater Systems
Codec ID                         : A_DTS
Duration                         : 1h 51mn
Bit rate mode                    : Constant
Bit rate                         : 1 510 Kbps
Channel(s)                       : 6 channels
Channel positions                : Front: L C R, Side: L R, LFE
Sampling rate                    : 48.0 KHz
Bit depth                        : 24 bits
Compression mode                 : Lossy
Stream size                      : 1.18 GiB (7%)
Language                         : English
Text #1
ID                               : 8
Format                           : UTF-8
Codec ID                         : S_TEXT/UTF8
Codec ID/Info                    : UTF-8 Plain Text
Language                         : Russian
Text #2
ID                               : 9
Format                           : UTF-8
Codec ID                         : S_TEXT/UTF8
Codec ID/Info                    : UTF-8 Plain Text
Title                            : Full
Language                         : English
Text #3
ID                               : 10
Format                           : UTF-8
Codec ID                         : S_TEXT/UTF8
Codec ID/Info                    : UTF-8 Plain Text
Title                            : SDH
Language                         : English
Menu
00:00:00.000                     : :Chapter 01
00:05:09.517                     : :Chapter 02
00:12:49.560                     : :Chapter 03
00:17:19.413                     : :Chapter 04
00:22:41.276                     : :Chapter 05
00:28:59.487                     : :Chapter 06
00:33:22.917                     : :Chapter 07
00:38:39.692                     : :Chapter 08
00:45:26.014                     : :Chapter 09
00:50:32.487                     : :Chapter 10
00:56:54.702                     : :Chapter 11
01:04:12.890                     : :Chapter 12
01:13:28.737                     : :Chapter 13
01:19:48.742                     : :Chapter 14
01:23:33.508                     : :Chapter 15
01:28:45.111                     : :Chapter 16
01:33:08.374                     : :Chapter 17
01:38:17.892                     : :Chapter 18
01:43:13.478                     : :Chapter 19
01:47:43.457                     : :Chapter 20
01:51:36.564                     : :Chapter 21
Знаете ли Вы, что...
  • Фильм занимает 25-е место по посещаемости среди зарубежных лент в советском кинопрокате.
    СкриншотыЦитата:
    Цитата:

    • За исходник спасибо BlueBird

  • _________________
    Показать сообщения:    

    Текущее время: Сегодня 01:46

    Часовой пояс: GMT



    Вы не можете начинать темы
    Вы не можете отвечать на сообщения
    Вы не можете редактировать свои сообщения
    Вы не можете удалять свои сообщения
    Вы не можете голосовать в опросах
    Вы не можете прикреплять файлы к сообщениям
    Вы не можете скачивать файлы
    Наши партнеры: интернет магазин Ивановского трикотажа textilla.ru