Важное объявление!
У Нас Все раздачи мультитрекерные, при нуле пиров в релизах, можете смело вставать на закачку!
 
Автор Сообщение

mihis

[Профиль] [ЛС]

Кровавый четверг / Thursday«They say the past always catches up with you. This could be the day.»
Год выпуска: 1998
Страна: США, Polygram Filmed Entertainment, Propaganda Films
Жанр: Боевик, триллер, драма, криминал
Продолжительность: 01:27:47
Перевод: Профессиональный (многоголосый, закадровый) + Профессиональный (двухголосый, закадровый) НТВ+ + Авторский (одноголосый, закадровый) 2 Д.Пучков, Ю.Живов, С.Визгунов + Оригинал
Субтитры: Русские (полные, по новому и старому переводу Гоблина), английские
Режиссер: Скип Вудс
В ролях: Томас Джейн, Аарон Экхарт, Паулина Поризкова, Джеймс ЛеГро, Пола Маршалл, Майкл Джитер, Гленн Пламмер, Микки Рурк, Люк Хари, Бари К. Уиллерфорд, Ричард Вонг, Шоун Майкл Ховард, Гари Дурдан, Брайан Хукс, Джефф Сандерс, Майкл Д. Олмос, Юджин Колльер, Марджин Холден, Тони Колон, Сэм Хайона
Описание: Бывший торговец наркотиками, прошедший через все круги ада, решает выйти на пенсию и забыть о своем темном прошлом. Переехав из Лос-Анджелеса в Хьюстон, он резко меняет свой имидж, и в глазах окружающих становится обыкновенным гражданином, которого трудно заподозрить в чем-либо криминальном. Однако, судьба готовит очередной, самый неожиданный сюрприз бывшему наркодилеру. В город приезжает его подельник с грузом героина. Компаньон и не думал забывать о своем партнере все то время, пока тот строил свою новую жизнь. Он предлагает ему последнюю сделку. За все однажды приходится платить и бывший наркоделец оказывается на волосок от смерти.

Качество: BDRip-AVC
Формат: MKV
Видео кодек: H.26x
Аудио кодек: AC3
Видео: AVC, 1024x552 (1.855), 23.976 fps, 2 868 Kbps (0.212 bit/pixel)
Аудио #1: AC3, 48.0 KHz, 6 ch, 448 Kbps, CBR MVO
Аудио #2: AC3, 48.0 KHz, 6 ch, 384 Kbps, CBR DVO НТВ+
Аудио #3: AC3, 48.0 KHz, 6 ch, 448 Kbps, CBR AVO Д.Пучков новый
Аудио #4: AC3, 48.0 KHz, 6 ch, 448 Kbps, CBR AVO Д.Пучков старый
Аудио #5: AC3, 48.0 KHz, 6 ch, 448 Kbps, CBR AVO Ю.Живов
Аудио #6: AC3, 48.0 KHz, 2 ch, 192 Kbps, CBR С.Визгунов
Аудио #7: AC3, 48.0 KHz, 6 ch, 448 Kbps, CBR Eng

MediaInfo

Общее
Уникальный идентификатор : 174600599262457397484790898027798370230 (0x835ADA2C94BD38DCA350FB0930AA97B6)
Полное имя : D:\Video\Thursday.1998x264.BDRip.(AVC).mkv
Формат : Matroska
Версия формата : Version 2
Размер файла : 3,48 Гбайт
Продолжительность : 1 ч. 27 м.
Общий поток : 5677 Кбит/сек
Название фильма : Respector
Дата кодирования : UTC 2013-09-28 08:33:11
Программа кодирования : mkvmerge v6.1.0 ('Old Devil') built on Mar 2 2013 14:32:37
Библиотека кодирования : libebml v1.3.0 + libmatroska v1.4.0
Видео
Идентификатор : 1
Формат : AVC
Формат/Информация : Advanced Video Codec
Профиль формата : High@L4.1
Параметр CABAC формата : Да
Параметр ReFrames формата : 11 кадров
Идентификатор кодека : V_MPEG4/ISO/AVC
Продолжительность : 1 ч. 27 м.
Битрейт : 2868 Кбит/сек
Ширина : 1024 пикселя
Высота : 552 пикселя
Соотношение сторон : 1,85:1
Режим частоты кадров : Постоянный
Частота кадров : 23,976 кадра/сек
Цветовое пространство : YUV
Субдискретизация насыщенности : 4:2:0
Битовая глубина : 8 бит
Тип развёртки : Прогрессивная
Бит/(Пиксели*Кадры) : 0.212
Размер потока : 1,69 Гбайт (48%)
Библиотека кодирования : x264 core 116 r2074 2641b9e
Настройки программы : cabac=1 / ref=11 / deblock=1:-1:-1 / analyse=0x3:0x133 / me=umh / subme=9 / psy=1 / psy_rd=1.00:0.10 / mixed_ref=1 / me_range=32 / chroma_me=1 / trellis=1 / 8x8dct=1 / cqm=0 / deadzone=21,11 / fast_pskip=0 / chroma_qp_offset=-3 / threads=12 / sliced_threads=0 / nr=0 / decimate=0 / interlaced=0 / bluray_compat=0 / constrained_intra=0 / bframes=8 / b_pyramid=2 / b_adapt=1 / b_bias=0 / direct=3 / weightb=1 / open_gop=0 / weightp=2 / keyint=240 / keyint_min=23 / scenecut=40 / intra_refresh=0 / rc_lookahead=40 / rc=2pass / mbtree=1 / bitrate=2868 / ratetol=1.0 / qcomp=0.60 / qpmin=0 / qpmax=69 / qpstep=4 / cplxblur=20.0 / qblur=0.5 / vbv_maxrate=25000 / vbv_bufsize=32500 / nal_hrd=none / ip_ratio=1.40 / aq=1:1.00
Default : Да
Forced : Нет
Аудио #1
Идентификатор : 2
Формат : AC-3
Формат/Информация : Audio Coding 3
Расширение режима : CM (complete main)
Параметр Endianness формата : Big
Идентификатор кодека : A_AC3
Продолжительность : 1 ч. 27 м.
Вид битрейта : Постоянный
Битрейт : 448 Кбит/сек
Каналы : 6 каналов
Расположение каналов : Front: L C R, Side: L R, LFE
Частота : 48,0 КГц
Битовая глубина : 16 бит
Метод сжатия : С потерями
Размер потока : 281 Мбайт (8%)
Заголовок : Russian- (Профессиональный многоголосый - DVD Group) - (AC3, 6 ch, 448 Кбит/с)
Язык : Russian
Default : Да
Forced : Нет
Аудио #2
Идентификатор : 3
Формат : AC-3
Формат/Информация : Audio Coding 3
Расширение режима : CM (complete main)
Параметр Endianness формата : Big
Идентификатор кодека : A_AC3
Продолжительность : 1 ч. 27 м.
Вид битрейта : Постоянный
Битрейт : 384 Кбит/сек
Каналы : 6 каналов
Расположение каналов : Front: L C R, Side: L R, LFE
Частота : 48,0 КГц
Битовая глубина : 16 бит
Метод сжатия : С потерями
Размер потока : 241 Мбайт (7%)
Заголовок : Russian(Профессиональный двухголосый - НТВ+) - (AC3, 6 ch, 384 Кбит/с)
Язык : Russian
Default : Нет
Forced : Нет
Аудио #3
Идентификатор : 4
Формат : AC-3
Формат/Информация : Audio Coding 3
Расширение режима : CM (complete main)
Параметр Endianness формата : Big
Идентификатор кодека : A_AC3
Продолжительность : 1 ч. 27 м.
Вид битрейта : Постоянный
Битрейт : 448 Кбит/сек
Каналы : 6 каналов
Расположение каналов : Front: L C R, Side: L R, LFE
Частота : 48,0 КГц
Битовая глубина : 16 бит
Метод сжатия : С потерями
Размер потока : 281 Мбайт (8%)
Заголовок : Russian(Авторский одноголосый - Д.Пучков-новый) - (AC3, 6 ch, 448 Кбит/с)
Язык : Russian
Default : Нет
Forced : Нет
Аудио #4
Идентификатор : 5
Формат : AC-3
Формат/Информация : Audio Coding 3
Расширение режима : CM (complete main)
Параметр Endianness формата : Big
Идентификатор кодека : A_AC3
Продолжительность : 1 ч. 27 м.
Вид битрейта : Постоянный
Битрейт : 448 Кбит/сек
Каналы : 6 каналов
Расположение каналов : Front: L C R, Side: L R, LFE
Частота : 48,0 КГц
Битовая глубина : 16 бит
Метод сжатия : С потерями
Размер потока : 281 Мбайт (8%)
Заголовок : Russian(Авторский одноголосый - Д.Пучков-старый) - (AC3, 6 ch, 448 Кбит/с)
Язык : Russian
Default : Нет
Forced : Нет
Аудио #5
Идентификатор : 6
Формат : AC-3
Формат/Информация : Audio Coding 3
Расширение режима : CM (complete main)
Параметр Endianness формата : Big
Идентификатор кодека : A_AC3
Продолжительность : 1 ч. 27 м.
Вид битрейта : Постоянный
Битрейт : 448 Кбит/сек
Каналы : 6 каналов
Расположение каналов : Front: L C R, Side: L R, LFE
Частота : 48,0 КГц
Битовая глубина : 16 бит
Метод сжатия : С потерями
Размер потока : 281 Мбайт (8%)
Заголовок : Russian(Авторский одноголосый - Ю.Живов) - (AC3, 6 ch, 448 Кбит/с)
Язык : Russian
Default : Нет
Forced : Нет
Аудио #6
Идентификатор : 7
Формат : AC-3
Формат/Информация : Audio Coding 3
Расширение режима : CM (complete main)
Параметр Endianness формата : Big
Идентификатор кодека : A_AC3
Продолжительность : 1 ч. 27 м.
Вид битрейта : Постоянный
Битрейт : 192 Кбит/сек
Каналы : 2 канала
Расположение каналов : Front: L R
Частота : 48,0 КГц
Битовая глубина : 16 бит
Метод сжатия : С потерями
Размер потока : 121 Мбайт (3%)
Заголовок : Russian(Авторский одноголосый - С.Визгунов) - (AC3, 2 ch, 192 Кбит/с)
Язык : Russian
Default : Нет
Forced : Нет
Аудио #7
Идентификатор : 8
Формат : AC-3
Формат/Информация : Audio Coding 3
Расширение режима : CM (complete main)
Параметр Endianness формата : Big
Идентификатор кодека : A_AC3
Продолжительность : 1 ч. 27 м.
Вид битрейта : Постоянный
Битрейт : 448 Кбит/сек
Каналы : 6 каналов
Расположение каналов : Front: L C R, Side: L R, LFE
Частота : 48,0 КГц
Битовая глубина : 16 бит
Метод сжатия : С потерями
Размер потока : 281 Мбайт (8%)
Заголовок : English - (AC3, 6 ch, 448 Кбит/с)
Язык : English
Default : Нет
Forced : Нет
Текст #1
Идентификатор : 9
Формат : UTF-8
Идентификатор кодека : S_TEXT/UTF8
Идентификатор кодека/Информация : UTF-8 Plain Text
Язык : Russian
Default : Нет
Forced : Нет
Текст #2
Идентификатор : 10
Формат : UTF-8
Идентификатор кодека : S_TEXT/UTF8
Идентификатор кодека/Информация : UTF-8 Plain Text
Заголовок : Goblin-new
Язык : Russian
Default : Нет
Forced : Нет
Текст #3
Идентификатор : 11
Формат : UTF-8
Идентификатор кодека : S_TEXT/UTF8
Идентификатор кодека/Информация : UTF-8 Plain Text
Заголовок : Goblin-old
Язык : Russian
Default : Нет
Forced : Нет
Текст #4
Идентификатор : 12
Формат : UTF-8
Идентификатор кодека : S_TEXT/UTF8
Идентификатор кодека/Информация : UTF-8 Plain Text
Язык : Russian
Default : Нет
Forced : Нет
 
Показать сообщения:    

Текущее время: Сегодня 10:35

Часовой пояс: GMT



Вы не можете начинать темы
Вы не можете отвечать на сообщения
Вы не можете редактировать свои сообщения
Вы не можете удалять свои сообщения
Вы не можете голосовать в опросах
Вы не можете прикреплять файлы к сообщениям
Вы не можете скачивать файлы