Важное объявление!
У Нас Все раздачи мультитрекерные, при нуле пиров в релизах, можете смело вставать на закачку!
 
Автор Сообщение

HUNTER

Стаж:
4 года 4 месяца
Сообщений:
56839

Репутация: 101

[+] [-]
Вне форума [Профиль] [ЛС]

Кровавая Утопия / Below Utopia / Body Count«He was a hired professional. But this was personal»-
Страна: США
Студия: Subutopian Films Inc.
Жанр: Триллер
Год выпуска: 1997
Продолжительность: 01:28:23-Перевод: Авторский (одноголосый закадровый) [Константин Дьяконов]
Cубтитры: нет
Оригинальная аудиодорожка: английский-Режиссер: Kurt Voss / Курт Фосс-В ролях: Алисса Милано, Джастин Теру, Айс-Ти, Том ’Тайни’ Листер мл., Ричард Даниэльсон, Николас Уолкер, Роберт Пайн, Жанетт О’Коннер, Рон Харпер, Марта Кристен-Описание: Семейный ужин в поместье «Утопия», принадлежащем торговцу произведениями искусства, превращается в кошмар, когда банда кровожадных отморозков под предводительством безжалостного главаря врывается в дом. Чудом спасшиеся младший сын богача и его подружка вынуждены прятаться в доме, потому что любое необдуманное действие предвещает смерть. Но почти никто из них не знает, в какую на самом деле "игру" они втянуты...-Доп. информация:
- русская звуковая дорожка идет первой по умолчанию;
- за русскую звуковую дорожку из этого релиза спасибо Real Bad MF
Бонусы: отсутствуют
Меню: есть, язык английский, анимированное, озвученное-Sample | IMDB | КиноПоиск-Тип релиза: DVD5 (Custom)
Контейнер: DVD-Video-Видео: NTSC 4:3 (720x480) VBR
Аудио 1: AC3, 2/0 ch, 192Kbps, Delay 0 mSec [Russian_AVO]
Аудио 2: AC3, 2/0 ch, 192Kbps, Delay 0 mSec [Original_Eng]-Релиз группы: -

Используемое ПО

1. BeLight - mp3 - wav;
2. Adobe Audition - синхронизация;
3. Minnetonka Audio Software - wav - ac3;

4. PgcDemux - разборка оригинального DVD;
5. MuxMan - сборка DVD;
6. DVDReMake Pro - финальный проект.

DVDInfo

Title:
Size: 4.17 Gb ( 4 373 440 KBytes ) - DVD-5
Enabled regions: 1, 2, 3, 4, 5, 6, 7, 8
VTS_01 :
Play Length: 01:28:18
Video: NTSC 4:3 (720x480) VBR
Audio:
Russian (Dolby AC3, 2 ch)
English (Dolby AC3, 2 ch)
VTS_02 :
Play Length: 00:00:01+00:00:03
Video: NTSC 4:3 (720x480) VBR
Audio:
English (Dolby AC3, 2 ch)
Menu Video:
NTSC 4:3 (720x480) VBR
Menu English Language Unit :
Root Menu

MediaInfo

General
Complete name : D:\Мои релизы\Below Utopia [DVD5]\VIDEO_TS\VIDEO_TS.BUP
Format : DVD Video
Format profile : Menu
File size : 8.00 KiB
Video
ID : 224 (0xE0)
Format : MPEG Video
Format version : Version 2
Bit rate mode : Variable
Width : 720 pixels
Height : 480 pixels
Display aspect ratio : 4:3
Frame rate : 29.970 fps
Standard : NTSC
Compression mode : Lossy
General
Complete name : D:\Мои релизы\Below Utopia [DVD5]\VIDEO_TS\VIDEO_TS.IFO
Format : DVD Video
Format profile : Menu
File size : 8.00 KiB
Video
ID : 224 (0xE0)
Format : MPEG Video
Format version : Version 2
Bit rate mode : Variable
Width : 720 pixels
Height : 480 pixels
Display aspect ratio : 4:3
Frame rate : 29.970 fps
Standard : NTSC
Compression mode : Lossy
General
Complete name : D:\Мои релизы\Below Utopia [DVD5]\VIDEO_TS\VTS_01_0.BUP
Format : DVD Video
Format profile : Program
File size : 66.0 KiB
Duration : 1h 28mn
Overall bit rate : 102 bps
Video
ID : 224 (0xE0)
Format : MPEG Video
Format version : Version 2
Duration : 1h 28mn
Bit rate mode : Variable
Width : 720 pixels
Height : 480 pixels
Display aspect ratio : 4:3
Frame rate : 29.970 fps
Standard : NTSC
Compression mode : Lossy
Audio #1
ID : 128 (0x80)
Format : AC-3
Format/Info : Audio Coding 3
Duration : 1h 28mn
Channel(s) : 2 channels
Sampling rate : 48.0 KHz
Compression mode : Lossy
Language : Russian
Audio #2
ID : 129 (0x81)
Format : AC-3
Format/Info : Audio Coding 3
Duration : 1h 28mn
Channel(s) : 2 channels
Sampling rate : 48.0 KHz
Compression mode : Lossy
Language : English
Menu
Duration : 1h 28mn
00:00:00.000 : Chapter 1
00:05:37.966 : Chapter 2
00:08:52.966 : Chapter 3
00:12:19.699 : Chapter 4
00:16:10.199 : Chapter 5
00:23:04.632 : Chapter 6
00:26:24.132 : Chapter 7
00:31:51.965 : Chapter 8
00:37:29.965 : Chapter 9
00:45:55.231 : Chapter 10
00:52:17.064 : Chapter 11
00:56:56.297 : Chapter 12
01:05:39.463 : Chapter 13
01:08:11.463 : Chapter 14
01:12:33.996 : Chapter 15
01:20:32.329 : Chapter 16
01:28:18.029 : Chapter 17
List (Audio) : 0 / 1
General
Complete name : D:\Мои релизы\Below Utopia [DVD5]\VIDEO_TS\VTS_01_0.IFO
Format : DVD Video
Format profile : Program
File size : 66.0 KiB
Duration : 1h 28mn
Overall bit rate : 102 bps
Video
ID : 224 (0xE0)
Format : MPEG Video
Format version : Version 2
Duration : 1h 28mn
Bit rate mode : Variable
Width : 720 pixels
Height : 480 pixels
Display aspect ratio : 4:3
Frame rate : 29.970 fps
Standard : NTSC
Compression mode : Lossy
Audio #1
ID : 128 (0x80)
Format : AC-3
Format/Info : Audio Coding 3
Duration : 1h 28mn
Channel(s) : 2 channels
Sampling rate : 48.0 KHz
Compression mode : Lossy
Language : Russian
Audio #2
ID : 129 (0x81)
Format : AC-3
Format/Info : Audio Coding 3
Duration : 1h 28mn
Channel(s) : 2 channels
Sampling rate : 48.0 KHz
Compression mode : Lossy
Language : English
Menu
Duration : 1h 28mn
00:00:00.000 : Chapter 1
00:05:37.966 : Chapter 2
00:08:52.966 : Chapter 3
00:12:19.699 : Chapter 4
00:16:10.199 : Chapter 5
00:23:04.632 : Chapter 6
00:26:24.132 : Chapter 7
00:31:51.965 : Chapter 8
00:37:29.965 : Chapter 9
00:45:55.231 : Chapter 10
00:52:17.064 : Chapter 11
00:56:56.297 : Chapter 12
01:05:39.463 : Chapter 13
01:08:11.463 : Chapter 14
01:12:33.996 : Chapter 15
01:20:32.329 : Chapter 16
01:28:18.029 : Chapter 17
List (Audio) : 0 / 1
General
Complete name : D:\Мои релизы\Below Utopia [DVD5]\VIDEO_TS\VTS_01_0.VOB
Format : MPEG-PS
File size : 94.1 MiB
Duration : 5s 24ms
Overall bit rate : 157 Mbps
Video
ID : 224 (0xE0)
Format : MPEG Video
Format version : Version 2
Format profile : Main@Main
Format settings, BVOP : Yes
Format settings, Matrix : Default
Duration : 133ms
Bit rate mode : Variable
Bit rate : 154 Mbps
Nominal bit rate : 9 800 Kbps
Width : 720 pixels
Height : 480 pixels
Display aspect ratio : 4:3
Frame rate : 29.970 fps
Standard : NTSC
Color space : YUV
Chroma subsampling : 4:2:0
Bit depth : 8 bits
Scan type : Interlaced
Scan order : Top Field First
Compression mode : Lossy
Bits/(Pixel*Frame) : 14.849
Stream size : 2.44 MiB (3%)
Audio
ID : 128 (0x80)
Format : AC-3
Format/Info : Audio Coding 3
Mode extension : CM (complete main)
Duration : 5s 24ms
Bit rate mode : Constant
Bit rate : 192 Kbps
Channel(s) : 2 channels
Channel positions : Front: L R
Sampling rate : 48.0 KHz
Bit depth : 16 bits
Compression mode : Lossy
Stream size : 118 KiB (0%)
Text
ID : 32 (0x20)
Format : RLE
Format/Info : Run-length encoding
Menu
General
Complete name : D:\Мои релизы\Below Utopia [DVD5]\VIDEO_TS\VTS_01_1.VOB
Format : MPEG-PS
File size : 1 024 MiB
Duration : 19mn 46s
Overall bit rate : 7 237 Kbps
Video
ID : 224 (0xE0)
Format : MPEG Video
Format version : Version 2
Format profile : Main@Main
Format settings, BVOP : Yes
Format settings, Matrix : Default
Duration : 19mn 46s
Bit rate mode : Variable
Bit rate : 6 709 Kbps
Nominal bit rate : 9 802 Kbps
Width : 720 pixels
Height : 480 pixels
Display aspect ratio : 4:3
Frame rate : 29.970 fps
Standard : NTSC
Color space : YUV
Chroma subsampling : 4:2:0
Bit depth : 8 bits
Compression mode : Lossy
Bits/(Pixel*Frame) : 0.648
Stream size : 949 MiB (93%)
Audio #1
ID : 128 (0x80)
Format : AC-3
Format/Info : Audio Coding 3
Mode extension : CM (complete main)
Duration : 19mn 46s
Bit rate mode : Constant
Bit rate : 192 Kbps
Channel(s) : 2 channels
Channel positions : Front: L R
Sampling rate : 48.0 KHz
Bit depth : 16 bits
Compression mode : Lossy
Stream size : 27.2 MiB (3%)
Audio #2
ID : 129 (0x81)
Format : AC-3
Format/Info : Audio Coding 3
Mode extension : CM (complete main)
Duration : 19mn 46s
Bit rate mode : Constant
Bit rate : 192 Kbps
Channel(s) : 2 channels
Channel positions : Front: L R
Sampling rate : 48.0 KHz
Bit depth : 16 bits
Compression mode : Lossy
Stream size : 27.2 MiB (3%)
Menu
General
Complete name : D:\Мои релизы\Below Utopia [DVD5]\VIDEO_TS\VTS_01_2.VOB
Format : MPEG-PS
File size : 1 024 MiB
Duration : 23mn 14s
Overall bit rate : 6 158 Kbps
Video
ID : 224 (0xE0)
Format : MPEG Video
Format version : Version 2
Format profile : Main@Main
Format settings, BVOP : Yes
Format settings, Matrix : Default
Duration : 23mn 14s
Bit rate mode : Variable
Bit rate : 5 651 Kbps
Nominal bit rate : 9 802 Kbps
Width : 720 pixels
Height : 480 pixels
Display aspect ratio : 4:3
Frame rate : 23.976 fps
Standard : NTSC
Color space : YUV
Chroma subsampling : 4:2:0
Bit depth : 8 bits
Scan type : Progressive
Scan order : 2:3 Pulldown
Compression mode : Lossy
Bits/(Pixel*Frame) : 0.682
Stream size : 939 MiB (92%)
Audio #1
ID : 128 (0x80)
Format : AC-3
Format/Info : Audio Coding 3
Mode extension : CM (complete main)
Duration : 23mn 14s
Bit rate mode : Constant
Bit rate : 192 Kbps
Channel(s) : 2 channels
Channel positions : Front: L R
Sampling rate : 48.0 KHz
Bit depth : 16 bits
Compression mode : Lossy
Video delay : -681ms
Stream size : 31.9 MiB (3%)
Audio #2
ID : 129 (0x81)
Format : AC-3
Format/Info : Audio Coding 3
Mode extension : CM (complete main)
Duration : 23mn 14s
Bit rate mode : Constant
Bit rate : 192 Kbps
Channel(s) : 2 channels
Channel positions : Front: L R
Sampling rate : 48.0 KHz
Bit depth : 16 bits
Compression mode : Lossy
Video delay : -681ms
Stream size : 31.9 MiB (3%)
Text
ID : 224 (0xE0)-DVD-2
Format : EIA-608
Muxing mode : DVD-Video
Muxing mode, more info : Muxed in Video #1
Stream size : 0.00 Byte (0%)
Menu
General
Complete name : D:\Мои релизы\Below Utopia [DVD5]\VIDEO_TS\VTS_01_3.VOB
Format : MPEG-PS
File size : 1 024 MiB
Duration : 19mn 13s
Overall bit rate : 7 447 Kbps
Video
ID : 224 (0xE0)
Format : MPEG Video
Format version : Version 2
Format profile : Main@Main
Format settings, BVOP : Yes
Format settings, Matrix : Default
Duration : 19mn 12s
Bit rate mode : Variable
Bit rate : 6 915 Kbps
Nominal bit rate : 9 802 Kbps
Width : 720 pixels
Height : 480 pixels
Display aspect ratio : 4:3
Frame rate : 23.976 fps
Standard : NTSC
Color space : YUV
Chroma subsampling : 4:2:0
Bit depth : 8 bits
Scan type : Progressive
Scan order : 2:3 Pulldown
Compression mode : Lossy
Bits/(Pixel*Frame) : 0.835
Stream size : 950 MiB (93%)
Audio #1
ID : 128 (0x80)
Format : AC-3
Format/Info : Audio Coding 3
Mode extension : CM (complete main)
Duration : 19mn 13s
Bit rate mode : Constant
Bit rate : 192 Kbps
Channel(s) : 2 channels
Channel positions : Front: L R
Sampling rate : 48.0 KHz
Bit depth : 16 bits
Compression mode : Lossy
Video delay : -699ms
Stream size : 26.4 MiB (3%)
Audio #2
ID : 129 (0x81)
Format : AC-3
Format/Info : Audio Coding 3
Mode extension : CM (complete main)
Duration : 19mn 13s
Bit rate mode : Constant
Bit rate : 192 Kbps
Channel(s) : 2 channels
Channel positions : Front: L R
Sampling rate : 48.0 KHz
Bit depth : 16 bits
Compression mode : Lossy
Video delay : -699ms
Stream size : 26.4 MiB (3%)
Text
ID : 224 (0xE0)-DVD-2
Format : EIA-608
Muxing mode : DVD-Video
Muxing mode, more info : Muxed in Video #1
Stream size : 0.00 Byte (0%)
Menu
General
Complete name : D:\Мои релизы\Below Utopia [DVD5]\VIDEO_TS\VTS_01_4.VOB
Format : MPEG-PS
File size : 1 024 MiB
Duration : 23mn 45s
Overall bit rate : 6 026 Kbps
Video
ID : 224 (0xE0)
Format : MPEG Video
Format version : Version 2
Format profile : Main@Main
Format settings, BVOP : Yes
Format settings, Matrix : Default
Format settings, GOP : M=3, N=12
Duration : 23mn 44s
Bit rate mode : Variable
Bit rate : 5 522 Kbps
Nominal bit rate : 9 802 Kbps
Width : 720 pixels
Height : 480 pixels
Display aspect ratio : 4:3
Frame rate : 23.976 fps
Standard : NTSC
Color space : YUV
Chroma subsampling : 4:2:0
Bit depth : 8 bits
Scan type : Progressive
Scan order : 2:3 Pulldown
Compression mode : Lossy
Bits/(Pixel*Frame) : 0.666
Stream size : 938 MiB (92%)
Audio #1
ID : 128 (0x80)
Format : AC-3
Format/Info : Audio Coding 3
Mode extension : CM (complete main)
Duration : 23mn 45s
Bit rate mode : Constant
Bit rate : 192 Kbps
Channel(s) : 2 channels
Channel positions : Front: L R
Sampling rate : 48.0 KHz
Bit depth : 16 bits
Compression mode : Lossy
Video delay : -676ms
Stream size : 32.6 MiB (3%)
Audio #2
ID : 129 (0x81)
Format : AC-3
Format/Info : Audio Coding 3
Mode extension : CM (complete main)
Duration : 23mn 45s
Bit rate mode : Constant
Bit rate : 192 Kbps
Channel(s) : 2 channels
Channel positions : Front: L R
Sampling rate : 48.0 KHz
Bit depth : 16 bits
Compression mode : Lossy
Video delay : -772ms
Stream size : 32.6 MiB (3%)
Menu
General
Complete name : D:\Мои релизы\Below Utopia [DVD5]\VIDEO_TS\VTS_01_5.VOB
Format : MPEG-PS
File size : 80.6 MiB
Duration : 2mn 22s
Overall bit rate : 4 728 Kbps
Video
ID : 224 (0xE0)
Format : MPEG Video
Format version : Version 2
Format profile : Main@Main
Format settings, BVOP : Yes
Format settings, Matrix : Default
Duration : 2mn 22s
Bit rate mode : Variable
Bit rate : 4 250 Kbps
Nominal bit rate : 9 802 Kbps
Width : 720 pixels
Height : 480 pixels
Display aspect ratio : 4:3
Frame rate : 23.976 fps
Standard : NTSC
Color space : YUV
Chroma subsampling : 4:2:0
Bit depth : 8 bits
Scan type : Progressive
Scan order : 2:3 Pulldown
Compression mode : Lossy
Bits/(Pixel*Frame) : 0.513
Stream size : 72.2 MiB (90%)
Audio #1
ID : 128 (0x80)
Format : AC-3
Format/Info : Audio Coding 3
Mode extension : CM (complete main)
Duration : 2mn 22s
Bit rate mode : Constant
Bit rate : 192 Kbps
Channel(s) : 2 channels
Channel positions : Front: L R
Sampling rate : 48.0 KHz
Bit depth : 16 bits
Compression mode : Lossy
Video delay : -505ms
Stream size : 3.27 MiB (4%)
Audio #2
ID : 129 (0x81)
Format : AC-3
Format/Info : Audio Coding 3
Mode extension : CM (complete main)
Duration : 2mn 22s
Bit rate mode : Constant
Bit rate : 192 Kbps
Channel(s) : 2 channels
Channel positions : Front: L R
Sampling rate : 48.0 KHz
Bit depth : 16 bits
Compression mode : Lossy
Video delay : -505ms
Stream size : 3.27 MiB (4%)
Menu
General
Complete name : D:\Мои релизы\Below Utopia [DVD5]\VIDEO_TS\VTS_02_0.BUP
Format : DVD Video
Format profile : Program
File size : 14.0 KiB
Duration : 3s 0ms
Overall bit rate : 38.2 Kbps
Video
ID : 224 (0xE0)
Format : MPEG Video
Format version : Version 2
Duration : 3s 3ms
Bit rate mode : Variable
Width : 720 pixels
Height : 480 pixels
Display aspect ratio : 4:3
Frame rate : 29.970 fps
Standard : NTSC
Compression mode : Lossy
Audio
ID : 128 (0x80)
Format : AC-3
Format/Info : Audio Coding 3
Duration : 3s 0ms
Channel(s) : 2 channels
Sampling rate : 48.0 KHz
Compression mode : Lossy
Language : English
Menu #1
Duration : 1s 500ms
00:00:00.000 : Chapter 1
00:00:00.500 : Chapter 2
00:00:01.000 : Chapter 3
List (Audio) : 0
Menu #2
Duration : 3s 0ms
00:00:00.000 : Chapter 1
00:00:00.500 : Chapter 2
00:00:01.000 : Chapter 3
00:00:01.500 : Chapter 4
00:00:02.000 : Chapter 5
00:00:02.500 : Chapter 6
List (Audio) : 0
General
Complete name : D:\Мои релизы\Below Utopia [DVD5]\VIDEO_TS\VTS_02_0.IFO
Format : DVD Video
Format profile : Program
File size : 14.0 KiB
Duration : 3s 0ms
Overall bit rate : 38.2 Kbps
Video
ID : 224 (0xE0)
Format : MPEG Video
Format version : Version 2
Duration : 3s 3ms
Bit rate mode : Variable
Width : 720 pixels
Height : 480 pixels
Display aspect ratio : 4:3
Frame rate : 29.970 fps
Standard : NTSC
Compression mode : Lossy
Audio
ID : 128 (0x80)
Format : AC-3
Format/Info : Audio Coding 3
Duration : 3s 0ms
Channel(s) : 2 channels
Sampling rate : 48.0 KHz
Compression mode : Lossy
Language : English
Menu #1
Duration : 1s 500ms
00:00:00.000 : Chapter 1
00:00:00.500 : Chapter 2
00:00:01.000 : Chapter 3
List (Audio) : 0
Menu #2
Duration : 3s 0ms
00:00:00.000 : Chapter 1
00:00:00.500 : Chapter 2
00:00:01.000 : Chapter 3
00:00:01.500 : Chapter 4
00:00:02.000 : Chapter 5
00:00:02.500 : Chapter 6
List (Audio) : 0
General
Complete name : D:\Мои релизы\Below Utopia [DVD5]\VIDEO_TS\VTS_02_1.VOB
Format : MPEG-PS
File size : 90.0 KiB
Duration : 33ms
Overall bit rate : 22.3 Mbps
Video
ID : 224 (0xE0)
Format : MPEG Video
Format version : Version 2
Format profile : Main@Main
Format settings, BVOP : No
Format settings, Matrix : Default
Format settings, GOP : N=1
Duration : 33ms
Bit rate mode : Variable
Bit rate : 4 587 Kbps
Width : 720 pixels
Height : 480 pixels
Display aspect ratio : 16:9
Frame rate : 29.970 fps
Standard : NTSC
Color space : YUV
Chroma subsampling : 4:2:0
Bit depth : 8 bits
Scan type : Progressive
Scan order : Top Field First
Compression mode : Lossy
Bits/(Pixel*Frame) : 0.443
Stream size : 18.5 KiB (21%)
Menu

Скриншоты меню

Скриншоты


_________________
Показать сообщения:    

Текущее время: Сегодня 00:36

Часовой пояс: GMT



Вы не можете начинать темы
Вы не можете отвечать на сообщения
Вы не можете редактировать свои сообщения
Вы не можете удалять свои сообщения
Вы не можете голосовать в опросах
Вы не можете прикреплять файлы к сообщениям
Вы не можете скачивать файлы