Важное объявление!
У Нас Все раздачи мультитрекерные, при нуле пиров в релизах, можете смело вставать на закачку!
 
Автор Сообщение

HUNTER

Стаж:
4 года 4 месяца
Сообщений:
56772

Репутация: 101

[+] [-]
Вне форума [Профиль] [ЛС]

Критический подход к методам гештальт-терапии, НЛП, тому или иному виду коучинга.
Страна: Россия
Автор: Кононов П. Н.
Тематика: Русская психоаналитика
Тип раздаваемого материала: Видеоурок
Продолжительность: 4:38:42
Год выпуска: 2013
Язык: Русский
Перевод: Не требуется
Описание: В процессе семинара обсуждаются принципы применения логики для отделения зерен от плевел при ознакомлении с методами представленными, например, в рамках курсов по гештальт-терапии, НЛП, по тем или иным видам коучинга.
«Плевела опьяняющие» внешне похожие на зерна овса и засоряют преимущественно хлебные злаки. А "хлеб" переводится с греческого как "растущий вверх" и символизирует стремление разума к высшим Знанием.
Качество: WEBRip
Формат: MP4
Видео кодек: H.264
Аудио кодек: AAC
Видео: 1280х720, H.264, 2491kbps, 30fps
Аудио: AAC, 254kb/s, 44,1KHz, 2Ch

Скриншоты

MediaInfo

Полное имя : \Кононов П.Н. Критический подход к методам гештальт-терапии, НЛП, тому или иному виду коучинга\Критический подход к методам гештальт-терапии, НЛП, тому или иному виду коучинга.mp4
Формат : MPEG-4
Профиль формата : Base Media / Version 2
Идентификатор кодека : mp42
Размер файла : 3,02 Гбайт
Продолжительность : 2 ч. 37 м.
Режим общего битрейта : Переменный
Общий поток : 2749 Кбит/сек
Дата кодирования : UTC 2014-03-07 23:34:49
Дата пометки : UTC 2014-03-07 23:40:08
©TIM : 00:00:00:00
©TSC : 30
©TSZ : 1
Видео
Идентификатор : 1
Формат : AVC
Формат/Информация : Advanced Video Codec
Профиль формата : High@L3.1
Параметр CABAC формата : Да
Параметр ReFrames формата : 3 кадра
Идентификатор кодека : avc1
Идентификатор кодека/Информация : Advanced Video Coding
Продолжительность : 2 ч. 37 м.
Продолжительность оригинала : 2 ч. 37 м.
Битрейт : 2491 Кбит/сек
Ширина : 1280 пикселей
Высота : 720 пикселей
Соотношение сторон : 16:9
Режим частоты кадров : Переменный
Частота кадров : 30,000 кадров/сек
Минимальная частота кадров : 30,000 кадров/сек
Максимальная частота кадров : 30,030 кадров/сек
Стандарт вещания : PAL
Цветовое пространство : YUV
Субдискретизация насыщенности : 4:2:0
Битовая глубина : 8 бит
Тип развёртки : Прогрессивная
Бит/(Пиксели*Кадры) : 0.090
Размер потока : 2,74 Гбайт (91%)
Размер потока оригинала : 2,74 Гбайт (91%)
Язык : English
Дата кодирования : UTC 2014-03-07 23:34:49
Дата пометки : UTC 2014-03-07 23:34:49
mdhd_Duration : 9437433
Основные цвета : BT.709
Характеристики трансфера : BT.709
Коэффициенты матрицы : BT.709
Аудио
Идентификатор : 2
Формат : AAC
Формат/Информация : Advanced Audio Codec
Профиль формата : LC
Идентификатор кодека : 40
Продолжительность : 2 ч. 37 м.
Продолжительность оригинала : 2 ч. 37 м.
Вид битрейта : Переменный
Битрейт : 254 Кбит/сек
Максимальный битрейт : 352 Кбит/сек
Каналы : 2 канала
Расположение каналов : Front: L R
Частота : 44,1 КГц
Метод сжатия : С потерями
Размер потока : 285 Мбайт (9%)
Размер потока оригинала : 285 Мбайт (9%)
Язык : English
Дата кодирования : UTC 2014-03-07 23:34:49
Дата пометки : UTC 2014-03-07 23:34:49
mdhd_Duration : 9437495

_________________
Показать сообщения:    

Текущее время: Сегодня 17:14

Часовой пояс: GMT



Вы не можете начинать темы
Вы не можете отвечать на сообщения
Вы не можете редактировать свои сообщения
Вы не можете удалять свои сообщения
Вы не можете голосовать в опросах
Вы не можете прикреплять файлы к сообщениям
Вы не можете скачивать файлы