Важное объявление!
У Нас Все раздачи мультитрекерные, при нуле пиров в релизах, можете смело вставать на закачку!
 
Автор Сообщение

HUNTER

Стаж:
4 года 4 месяца
Сообщений:
56842

Репутация: 101

[+] [-]
Вне форума [Профиль] [ЛС]

Криминальное чтиво / Pulp Fiction
Страна: США
Кинокомпании: Мirаmах Films, А Ваnd Араrt, Jеrsеу Films.
Жанр: Триллер, криминальная комедия
Год выпуска: 1994
Продолжительность: 02:28:05
Перевод #1: Профессиональный (дублированный)
Перевод #2: Профессиональный (многоголосый закадровый)
Cубтитры: русские отключаемые
Оригинальная аудиодорожка: английский
Режиссер: Квентин Тарантино / Quentin Tarantino
В ролях: Джон Траволта, Сэмюэл Л. Джексон,
Брюс Уиллис, Ума Турман, Винг Реймз, Тим Рот,
Харви Кейтель, Квентин Тарантино, Питер Грин,
Аманда Пламмер, и др.
Описание: Двое бандитов Винсент Вега и Джулс Винфилд проводят время
в философских беседах в перерыве между разборками и "решением проблем"
с должниками своего криминального босса Марселласа Уоллеса.
Параллельно разворачивается три истории. В первой из них Винсент присматривает
за женой Марселласа Мией и спасает ее от передозировки наркотиков.
Во второй рассказывается о Бутче Кулидже, боксере, нанятом Уоллесом, чтобы сдать бой,
но обманувшим его.
Третья история объединяет первые две - в кафе парочка молодых неудачливых
грабителей - Пампкин и Хани Бани делают попытку ограбления, но Джулс останавливает их…
Дополнительные материалы:
Все на английском, все переведены русскими субтитрами.
"Криминальное чтиво: Факты" (документальный фильм)
Удалённые сцены
На съёмочной площадке
Фильм о фильме
Вручение награды "Независимый дух"
Меню: Русскоязычное, анимированное, озвученное.
Издатель диска: Кармен Видео. Издание 2013 года.
Тип релиза: DVD9
Контейнер: DVD-Video
Видео кодек: MPEG-2
Аудио кодек: AC-3
Video: PAL 16:9 (720x576) VBR, 4107 kbps - 8500 kbps, Auto Pan&Scan, Auto Letterboxed
Аudio #1: Russian (Dolby AC3, 6 ch) CBR 384 kbps, Front: L C R, Side: L R, LFE, 48.0 KHz 16 bits Dub
Аudio #2: Russian (Dolby AC3, 2 ch) CBR 192 kbps, Front: L R, 48.0 KHz 16 bits MVO
Аudio #3: English (Dolby AC3, 6 ch) CBR 384 kbps, Front: L C R, Side: L R, LFE, 48.0 KHz 16 bits Original

DVDInfo

Title: Pulp_Fiction_1994_DVD9_[rutracker.org]Size: 7.59 Gb ( 7 958 078,00 KBytes ) - DVD-9Enabled regions: 1, 2, 3, 4, 5, 6, 7, 8
VTS_01 : Play Length: 00:00:01+02:28:05+00:00:01 Video: PAL 16:9 (720x576) VBR, Auto Letterboxed Audio: Russian (Dolby AC3, 6 ch) Russian (Dolby AC3, 2 ch) English (Dolby AC3, 6 ch) Subtitles: Russian
VTS_02 : Play Length: 00:00:01+00:00:05+00:00:12 Video: PAL 16:9 (720x576) VBR, Auto Letterboxed Audio: Russian (Dolby AC3, 6 ch)
VTS_03 : Play Length: 00:00:01+00:00:08+00:00:01 Video: PAL 16:9 (720x576) VBR, Auto Letterboxed Audio: Russian (Dolby AC3, 2 ch)
VTS_04 : Play Length: 00:00:01+00:30:32+00:00:01+00:24:16+00:00:01+00:10:47+00:00:01+00:06:22+00:00:01+00:11:29+00:00:01 Video: PAL 4:3 (720x576) VBR Audio: English (Dolby AC3, 2 ch) Subtitles: Russian
* Menus Information *
VIDEO_TS MenuVideo: NTSC 4:3 (720x480) VBR Auto Pan&Scan, Auto LetterboxedRussian Language Unit : Title Menu
VTS_01 MenuVideo: PAL 16:9 (720x576) VBR Auto LetterboxedAudio: Not specified (Dolby AC3, 2 ch)Russian Language Unit : Root Menu
VTS_02 MenuVideo: NTSC 4:3 (720x480) VBR Auto Pan&Scan, Auto LetterboxedLanguage Unit : Subpicture Menu Angle menuLanguage Unit : Subpicture Menu Angle menuLanguage Unit : Subpicture Menu Angle menuLanguage Unit : Subpicture Menu Angle menuLanguage Unit : Subpicture Menu Angle menu
VTS_03 MenuVideo: NTSC 4:3 (720x480) VBR Auto Pan&Scan, Auto LetterboxedLanguage Unit : Subpicture Menu Angle menuLanguage Unit :
Language Unit : Root Menu Chapter (PTT) MenuLanguage Unit :
Language Unit : Root Menu Chapter (PTT) Menu
VTS_04 MenuVideo: NTSC 4:3 (720x480) VBR Auto Pan&Scan, Auto LetterboxedRussian Language Unit : Root Menu

MediaInfo - VTS_01_3.VOB

ОбщееПолное имя : E:\Pulp_Fiction_1994_DVD9_[rutracker.org]\VIDEO_TS\VTS_01_3.VOBФормат : MPEG-PSРазмер файла : 1024 МбайтПродолжительность : 27 м.Режим общего битрейта : ПеременныйОбщий поток : 5170 Кбит/сек
ВидеоИдентификатор : 224 (0xE0)Формат : MPEG VideoВерсия формата : Version 2Профиль формата : Main@MainПараметр BVOP формата : ДаПараметр матрицы формата : ВыборочнаяПараметр GOP формата : M=3, N=15Продолжительность : 27 м.Вид битрейта : ПеременныйБитрейт : 4107 Кбит/секМаксимальный битрейт : 8500 Кбит/секШирина : 720 пикселейВысота : 576 пикселейСоотношение сторон : 16:9Частота кадров : 25,000 кадров/секСтандарт вещания : PALЦветовое пространство : YUVСубдискретизация насыщенности : 4:2:0Битовая глубина : 8 битТип развёртки : ЧересстрочнаяПорядок развёртки : Верхнее поле первоеМетод сжатия : С потерямиБит/(Пиксели*Кадры) : 0.396Временной код первого кадра : 00:51:14:24Оригинал временного кода : Group of pictures headerРазмер потока : 813 Мбайт (79%)
Аудио #1Идентификатор : 189 (0xBD)-128 (0x80)Формат : AC-3Формат/Информация : Audio Coding 3Расширение режима : CM (complete main)Параметр Endianness формата : BigРежим смешивания : DVD-VideoПродолжительность : 27 м.Вид битрейта : ПостоянныйБитрейт : 384 Кбит/секКаналы : 6 каналовРасположение каналов : Front: L C R, Side: L R, LFEЧастота : 48,0 КГцБитовая глубина : 16 битМетод сжатия : С потерямиЗадержка видео : -288 мс.Размер потока : 76,1 Мбайт (7%)
Аудио #2Идентификатор : 189 (0xBD)-129 (0x81)Формат : AC-3Формат/Информация : Audio Coding 3Расширение режима : CM (complete main)Параметр Endianness формата : BigРежим смешивания : DVD-VideoПродолжительность : 27 м.Вид битрейта : ПостоянныйБитрейт : 192 Кбит/секКаналы : 2 каналаРасположение каналов : Front: L RЧастота : 48,0 КГцБитовая глубина : 16 битМетод сжатия : С потерямиЗадержка видео : -216 мс.Размер потока : 38,0 Мбайт (4%)
Аудио #3Идентификатор : 189 (0xBD)-130 (0x82)Формат : AC-3Формат/Информация : Audio Coding 3Расширение режима : CM (complete main)Параметр Endianness формата : BigРежим смешивания : DVD-VideoПродолжительность : 27 м.Вид битрейта : ПостоянныйБитрейт : 384 Кбит/секКаналы : 6 каналовРасположение каналов : Front: L C R, Side: L R, LFEЧастота : 48,0 КГцБитовая глубина : 16 битМетод сжатия : С потерямиЗадержка видео : -288 мс.Размер потока : 76,1 Мбайт (7%)
ТекстИдентификатор : 189 (0xBD)-32 (0x20)Формат : RLEФормат/Информация : Run-length encodingРежим смешивания : DVD-VideoПродолжительность : 27 м.Задержка видео : 560 мс.
Меню

Скриншоты меню

Скриншоты


Скриншоты дополнительных материалов

"Криминальное чтиво: Факты" (документальный фильм)

Удалённые сцены

На съёмочной площадке

Фильм о фильме

Вручение награды "Независимый дух"

Раздача: По возможности!!!

_________________
Показать сообщения:    

Текущее время: Сегодня 14:01

Часовой пояс: GMT



Вы не можете начинать темы
Вы не можете отвечать на сообщения
Вы не можете редактировать свои сообщения
Вы не можете удалять свои сообщения
Вы не можете голосовать в опросах
Вы не можете прикреплять файлы к сообщениям
Вы не можете скачивать файлы