Важное объявление!
У Нас Все раздачи мультитрекерные, при нуле пиров в релизах, можете смело вставать на закачку!
 
Автор Сообщение

HUNTER

Стаж:
4 года 4 месяца
Сообщений:
56719

Репутация: 101

[+] [-]
Вне форума [Профиль] [ЛС]

Криминальная полоса в прессе США / Deadline - U.S.A.-
Год выпуска: 1952
Страна: США
Жанр: криминальная драма
Продолжительность: 01:27:03
Перевод: Одноголосый закадровый – fiendover
Оригинальная аудиодорожка: Английская
Cубтитры: Русские (Pin-uncle), английские-Режиссер: Ричард Брукс / Richard Brooks
В ролях: Хамфри Богарт, Этель Бэрримор, Ким Хантер, Эд Бегли, Уоррен Стивенс, Пол Стюарт, Мартин Габел, Джо Де Сантис, Джойс МакКензи, Одри Кристи-Описание:
Эд Хатчисон, принципиальный и несговорчивый редактор Нью-Йоркской газеты «День», обнаруживает, что наследники покойного владельца продают неспокойную газету своему коммерческому конкуренту. Сначала он рассматривает нависшую безработицу как возможность вернуть свою жену Нору, с которой он в разводе уже два года. Но когда его репортер, расследуя деятельность рэкетира Ренци, оказывается, ужасно избит, Хатчисон начинает бескомпромиссный крестовый поход против гангстера, в надежде, что Ренци может быть причастен к убийству молодой женщины…и все это за три выпуска до закрытия газеты «День».
"Криминальная полоса в прессе США", вышедший в 1952 году криминальный фильм, украшением которого стали Хамфри Богарт, Этель Берримор и Ким Хантер. Прототипом газеты в фильме, называемой "День", стала старейшая Нью-Йоркская газета "Сан" (The Sun), закрытая в 1950 году. В газете "Сан" главным редактором был Бенджамин Дэй (День). В фильме этот факт использован как игра слов. Этот мощный фильм, с элементами нуара, является одним из лучших фильмов о газетном бизнесе. Сцены в типографии сняты в здании Нью-Йорк Дейли Ньюс.- | IMDb | Сэмпл-Качество: BDRip 720p (DON)
Контейнер: MKV
Видео: x264, 960x720 (1.33:1), 23.976 fps, 10263 kbps
Аудио 1: Русский AС3, 2.0, 48 kHz, 192 kbps
Аудио 2: Английский AС3 2.0, 48 kHz, 224 kbps
Формат субтитров: softsub (SRT)

MI

nfo
Info
RUNTIME.......: 1h 27mn
SIZE..........: 6.38 GiB
VIDEO CODEC...: x264, CRF 17.7, L4.1
FRAMERATE.....: 23.976 fps
BITRATE.......: 10.1 Mbps
RESOLUTION....: 960x720
AUDIO ........: English 2.0ch AC-3 @ 224 Kbps
SUBTITLES.....: -
CHAPTERS/NAMED: Yes / No
SOURCE........: Deadline - U.S.A. 1952 1080p GER Blu-ray AVC DD 2.0-BDA(thanks!)
x264 info
profile High, level 4.1
x264 [info]: frame I:812 Avg QP:19.19 size:131741
x264 [info]: frame P:24778 Avg QP:20.23 size: 84342
x264 [info]: frame B:99646 Avg QP:21.72 size: 45202
x264 [info]: consecutive B-frames: 0.9% 0.2% 1.8% 20.4% 29.7% 45.4% 1.6%
x264 [info]: kb/s:10263.02
encoded 125236 frames, 3.482 fps, 10263.02 kb/s, 6390.5 MB
General
Unique ID : 234782596499276332572435497863663180669 (0xB0A17BB9AC45BA4F920D12796F05DB7D)
Complete name : Deadline.U.S.A.1952.720p.BluRay.DD2.0.x264-DON.mkv
Format : Matroska
Format version : Version 2
File size : 6.50 GiB
Duration : 1h 27mn
Overall bit rate : 10.7 Mbps
Movie name : Deadline - U.S.A. / Криминальная полоса в прессе США (1952) – RuTracker
Encoded date : UTC 2015-03-19 18:20:40
Writing application : mkvmerge v7.5.0 ('Glass Culture') 64bit built on Jan 4 2015 16:48:44
Writing library : libebml v1.3.1 + libmatroska v1.4.2
Attachements : cover.jpg
Video
ID : 1
Format : AVC
Format/Info : Advanced Video Codec
Format profile : High@L4.1
Format settings, CABAC : Yes
Format settings, ReFrames : 12 frames
Codec ID : V_MPEG4/ISO/AVC
Duration : 1h 27mn
Bit rate : 10.1 Mbps
Width : 960 pixels
Height : 720 pixels
Display aspect ratio : 4:3
Frame rate mode : Constant
Frame rate : 23.976 fps
Color space : YUV
Chroma subsampling : 4:2:0
Bit depth : 8 bits
Scan type : Progressive
Bits/(Pixel*Frame) : 0.607
Stream size : 6.11 GiB (94%)
Title : Deadline.U.S.A.1952.720p.BluRay.DD2.0.x264-DON
Writing library : x264 core 142 r2431+42 c69a006 tMod [8-bit@all X86_64]
Encoding settings : cabac=1 / ref=12 / deblock=1:-3:-3 / analyse=0x3:0x133 / me=tesa / subme=10 / psy=1 / fade_compensate=0.00 / psy_rd=1.10:0.00 / mixed_ref=1 / me_range=32 / chroma_me=1 / trellis=2 / 8x8dct=1 / cqm=0 / deadzone=21,11 / fast_pskip=0 / chroma_qp_offset=-2 / threads=12 / lookahead_threads=1 / sliced_threads=0 / nr=0 / decimate=1 / interlaced=0 / bluray_compat=0 / constrained_intra=0 / fgo=0 / bframes=6 / b_pyramid=2 / b_adapt=2 / b_bias=0 / direct=3 / weightb=1 / open_gop=0 / weightp=2 / keyint=241 / keyint_min=23 / scenecut=40 / intra_refresh=0 / rc_lookahead=60 / rc=crf / mbtree=0 / crf=17.7000 / qcomp=0.70 / qpmin=0:0:0 / qpmax=69:69:69 / qpstep=4 / vbv_maxrate=50000 / vbv_bufsize=62500 / crf_max=0.0 / nal_hrd=none / filler=0 / ip_ratio=1.30 / pb_ratio=1.20 / aq=4:0.60 / aq-sensitivity=10.00 / aq-factor=1.00:1.00:1.00 / aq2=0 / aq3=0
Language : English
Default : Yes
Forced : No
Audio #1
ID : 2
Format : AC-3
Format/Info : Audio Coding 3
Mode extension : CM (complete main)
Format settings, Endianness : Big
Codec ID : A_AC3
Duration : 1h 27mn
Bit rate mode : Constant
Bit rate : 192 Kbps
Channel(s) : 2 channels
Channel positions : Front: L R
Sampling rate : 48.0 KHz
Bit depth : 16 bits
Compression mode : Lossy
Stream size : 120 MiB (2%)
Title : VO – fiendover
Language : Russian
Default : Yes
Forced : No
Audio #2
ID : 3
Format : AC-3
Format/Info : Audio Coding 3
Mode extension : CM (complete main)
Format settings, Endianness : Big
Codec ID : A_AC3
Duration : 1h 27mn
Bit rate mode : Constant
Bit rate : 224 Kbps
Channel(s) : 2 channels
Channel positions : Front: L R
Sampling rate : 48.0 KHz
Bit depth : 16 bits
Compression mode : Lossy
Stream size : 139 MiB (2%)
Title : Original
Language : English
Default : No
Forced : No
Text #1
ID : 4
Format : UTF-8
Codec ID : S_TEXT/UTF8
Codec ID/Info : UTF-8 Plain Text
Title : Pin-uncle
Language : Russian
Default : No
Forced : No
Text #2
ID : 5
Format : UTF-8
Codec ID : S_TEXT/UTF8
Codec ID/Info : UTF-8 Plain Text
Language : English
Default : No
Forced : No
Menu
00:00:00.000 : en:Chapter 01
00:13:05.117 : en:Chapter 02
00:26:15.365 : en:Chapter 03
00:34:53.508 : en:Chapter 04
00:50:35.574 : en:Chapter 05
00:57:54.804 : en:Chapter 06
01:08:45.663 : en:Chapter 07
01:19:43.945 : en:Chapter 08

BDInfo

Disc Title: Deadline USA
Disc Size: 23,689,129,856 bytes
Protection: AACS
BD-Java: No
Playlist: 00001.MPLS
Size: 22,826,741,760 bytes
Length: 1:27:03.384
Total Bitrate: 34.96 Mbps
Video: MPEG-4 AVC Video / 32973 kbps / 1080p / 23.976 fps / 16:9 / High Profile 4.1
Audio: German / Dolby Digital Audio / 2.0 / 48 kHz / 224 kbps / DN -4dB
Audio: English / Dolby Digital Audio / 2.0 / 48 kHz / 224 kbps / DN -4dB
Subtitle: German / 0.734 kbps

_________________
Показать сообщения:    

Текущее время: Сегодня 00:55

Часовой пояс: GMT



Вы не можете начинать темы
Вы не можете отвечать на сообщения
Вы не можете редактировать свои сообщения
Вы не можете удалять свои сообщения
Вы не можете голосовать в опросах
Вы не можете прикреплять файлы к сообщениям
Вы не можете скачивать файлы