Важное объявление!
У Нас Все раздачи мультитрекерные, при нуле пиров в релизах, можете смело вставать на закачку!
 
Автор Сообщение

HUNTER

Стаж:
4 года 4 месяца
Сообщений:
56783

Репутация: 101

[+] [-]
Вне форума [Профиль] [ЛС]

Крестный отец 1,2,3 / The Godfather 1,2,3
«Трилогия»
- -Крестный отец / The Godfather
«Настоящая сила не может быть дана, она может быть взята...»
-
Год выпуска: 1972
Выпущено: США / Paramount Pictures, Alfran Productions
Жанр: драма, криминал
Продолжительность: 02:57:09
Перевод: Профессиональный (двухголосый закадровый) R5 / Universal Pictures Rus
Cубтитры: нет-Режиссер:
Френсис Форд Коппола / Francis Ford Coppola-В ролях:
Марлон Брандо (Don Vito Corleone), Аль Пачино (Michael Corleone), Джеймс Каан (Sonny Corleone), Роберт Дювалл (Tom Hagen), Ричард С. Кастеллано (Clemenza), Дайан Китон (Kay Adams), Талия Шайр (Connie), Джон Казале (Fredo), Аль Леттьери (Sollozzo), Стерлинг Хейден (Capt. McCluskey)-Описание:
Криминальная сага, повествующая о нью-йоркской сицилийской мафиозной семье Корлеоне. Фильм охватывает период 1945-1955 годов.
Глава семьи, Дон Вито Корлеоне, выдаёт замуж свою дочь. В это время со Второй мировой войны возвращается его любимый сын Майкл. Майкл, герой войны, гордость семьи, не выражает желания заняться жестоким семейным бизнесом. Дон Корлеоне ведёт дела по старым правилам, но наступают иные времена, и появляются люди, желающие изменить сложившиеся порядки. На Дона Корлеоне совершается покушение.-| IMDB | КиноПоиск |-Качество: BDRip [The_Godfather_Part_I_BD_BLUEBIRD]
Формат: AVI
Видео: 624x352 (1.77:1), 23.976 fps, XviD build 73 ~1042 kbps avg, 0.20 bit/pixel
Аудио: 48 kHz, MPEG Layer 3, 2 ch, ~128.00 kbps avg
-

Скриншоты

MediaInfo

Код:
General
Complete name                            : D:\Krestnyi_otec_I_1972_BDRip_by_Dalemake.avi
Format                                   : AVI
Format/Info                              : Audio Video Interleave
File size                                : 1.46 GiB
Duration                                 : 2h 57mn
Overall bit rate                         : 1 180 Kbps
Writing application                      : VirtualDubMod 1.5.10.3 | www.virtualdub-fr.org || (build 2550/release)
Writing library                          : VirtualDubMod build 2550/release
Video
ID                                       : 0
Format                                   : MPEG-4 Visual
Format profile                           : Advanced Simple@L5
Format settings, BVOP                    : 1
Format settings, QPel                    : No
Format settings, GMC                     : No warppoints
Format settings, Matrix                  : Custom
Codec ID                                 : XVID
Codec ID/Hint                            : XviD
Duration                                 : 2h 57mn
Bit rate                                 : 1 043 Kbps
Width                                    : 624 pixels
Height                                   : 352 pixels
Display aspect ratio                     : 16:9
Frame rate                               : 23.976 fps
Color space                              : YUV
Chroma subsampling                       : 4:2:0
Bit depth                                : 8 bits
Scan type                                : Progressive
Compression mode                         : Lossy
Bits/(Pixel*Frame)                       : 0.198
Stream size                              : 1.29 GiB (88%)
Writing library                          : XviD 73
Audio
ID                                       : 1
Format                                   : MPEG Audio
Format version                           : Version 1
Format profile                           : Layer 3
Codec ID                                 : 55
Codec ID/Hint                            : MP3
Duration                                 : 2h 57mn
Bit rate mode                            : Constant
Bit rate                                 : 128 Kbps
Channel(s)                               : 2 channels
Sampling rate                            : 48.0 KHz
Compression mode                         : Lossy
Stream size                              : 162 MiB (11%)
Alignment                                : Aligned on interleaves
Interleave, duration                     : 42 ms (1.00 video frame)
Interleave, preload duration             : 504 ms
Writing library                          : LAME3.99r
Encoding settings                        : -m s -V 4 -q 2 -lowpass 17 -b 128

-
--Крестный отец 2 / The Godfather: Part II
«Сага продолжается»
-
Год выпуска: 1974
Выпущено: США / Paramount Pictures, The Coppola Company
Жанр: драма, криминал
Продолжительность: 03:22:06
Перевод: Профессиональный (двухголосый закадровый) R5 / Universal Pictures Rus
Cубтитры: нет-Режиссер:
Френсис Форд Коппола / Francis Ford Coppola-В ролях:
Аль Пачино (Michael), Роберт Де Ниро (Vito Corleone), Дайан Китон (Kay), Роберт Дювалл (Tom Hagen), Джон Казале (Fredo Corleone), Ли Страсберг (Hyman Roth), Майкл В. Гаццо (Frankie Pentangeli), Талия Шайр (Connie Corleone), Г.Д. Спрэдлин (Senator Pat Geary), Гастоне Москин (Fanucci)-Описание:
В центре драмы представители нового поколения гангстерского клана — дона Корлеоне и его сына, для которых не существует моральных преград на пути достижения поставленых целей. Они превращают мафию, построенную по патриархальным, еще сицилийским законам, в весьма прагматичную, жесткую корпорацию, плавно интегрирующуюся в большой бизнес Америки.-| IMDB | КиноПоиск |-Качество: BDRip [The_Godfather_Part_II_BD_BLUEBIRD]
Формат: AVI
Видео: 624x352 (1.77:1), 23.976 fps, XviD build 73 ~894 kbps avg, 0.17 bit/pixel
Аудио: 48 kHz, MPEG Layer 3, 2 ch, ~128.00 kbps avg
-

Скриншоты

MediaInfo

Код:
General
Complete name                            : D:\Krestnyi_otec_II_1974_BDRip_by_Dalemake.avi
Format                                   : AVI
Format/Info                              : Audio Video Interleave
File size                                : 1.46 GiB
Duration                                 : 3h 22mn
Overall bit rate                         : 1 032 Kbps
Writing application                      : VirtualDubMod 1.5.10.3 | www.virtualdub-fr.org || (build 2550/release)
Writing library                          : VirtualDubMod build 2550/release
Video
ID                                       : 0
Format                                   : MPEG-4 Visual
Format profile                           : Advanced Simple@L5
Format settings, BVOP                    : 1
Format settings, QPel                    : No
Format settings, GMC                     : No warppoints
Format settings, Matrix                  : Custom
Codec ID                                 : XVID
Codec ID/Hint                            : XviD
Duration                                 : 3h 22mn
Bit rate                                 : 895 Kbps
Width                                    : 624 pixels
Height                                   : 352 pixels
Display aspect ratio                     : 16:9
Frame rate                               : 23.976 fps
Color space                              : YUV
Chroma subsampling                       : 4:2:0
Bit depth                                : 8 bits
Scan type                                : Progressive
Compression mode                         : Lossy
Bits/(Pixel*Frame)                       : 0.170
Stream size                              : 1.26 GiB (87%)
Writing library                          : XviD 73
Audio
ID                                       : 1
Format                                   : MPEG Audio
Format version                           : Version 1
Format profile                           : Layer 3
Codec ID                                 : 55
Codec ID/Hint                            : MP3
Duration                                 : 3h 22mn
Bit rate mode                            : Constant
Bit rate                                 : 128 Kbps
Channel(s)                               : 2 channels
Sampling rate                            : 48.0 KHz
Compression mode                         : Lossy
Stream size                              : 185 MiB (12%)
Alignment                                : Aligned on interleaves
Interleave, duration                     : 42 ms (1.00 video frame)
Interleave, preload duration             : 504 ms
Writing library                          : LAME3.99r
Encoding settings                        : -m s -V 4 -q 2 -lowpass 17 -b 128

-
--Крестный отец 3 / The Godfather: Part III
«Настоящую власть никто не дает. Её нужно взять.»
-
Год выпуска: 1990
Выпущено: США / Paramount Pictures, Zoetrope Studios
Жанр: боевик, триллер, драма, криминал
Продолжительность: 02:50:15
Перевод: Профессиональный (двухголосый закадровый) R5 / Universal Pictures Rus
Cубтитры: нет-Режиссер:
Френсис Форд Коппола / Francis Ford Coppola-В ролях:
Аль Пачино (Michael), Энди Гарсиа (Vincent Mancini), Дайан Китон (Kay Adams Michelson), Талия Шайр (Connie Corleone Rizzi), Эли Уоллах (Don Altobello), Джо Мантенья (Joey Zasa), София Коппола (Mary Corleone), Фрэнк Д’Амброзио (Anthony Vito Corleone), Джордж Хэмилтон (B.J. Harrison)-Описание:
Заключительная часть знаменитой гангстерской эпопеи, в которой продолжается рассказ о делах «семьи» дона Корлеоне. Через двадцать лет после событий, описанных в предыдущей картине, Майкл Корлеоне решает заняться легальным бизнесом. Однако противодействие внутри клана заставляет его вспомнить об испытанных кровавых методах общения с противником, что приводит к трагическому итогу.-| IMDB | КиноПоиск |-Качество: BDRip [The_Godfather_Part_III_BD_BLUEBIRD]
Формат: AVI
Видео: 624x352 (1.77:1), 23.976 fps, XviD build 73 ~1086 kbps avg, 0.21 bit/pixel
Аудио: 48 kHz, MPEG Layer 3, 2 ch, ~128.00 kbps avg
-

Скриншоты

MediaInfo

Код:
General
Complete name                            : D:\Krestnyi_otec_III_1990_BDRip_by_Dalemake.avi
Format                                   : AVI
Format/Info                              : Audio Video Interleave
File size                                : 1.46 GiB
Duration                                 : 2h 50mn
Overall bit rate                         : 1 224 Kbps
Writing application                      : VirtualDubMod 1.5.10.3 | www.virtualdub-fr.org || (build 2550/release)
Writing library                          : VirtualDubMod build 2550/release
Video
ID                                       : 0
Format                                   : MPEG-4 Visual
Format profile                           : Advanced Simple@L5
Format settings, BVOP                    : 1
Format settings, QPel                    : No
Format settings, GMC                     : No warppoints
Format settings, Matrix                  : Custom
Codec ID                                 : XVID
Codec ID/Hint                            : XviD
Duration                                 : 2h 50mn
Bit rate                                 : 1 087 Kbps
Width                                    : 624 pixels
Height                                   : 352 pixels
Display aspect ratio                     : 16:9
Frame rate                               : 23.976 fps
Color space                              : YUV
Chroma subsampling                       : 4:2:0
Bit depth                                : 8 bits
Scan type                                : Progressive
Compression mode                         : Lossy
Bits/(Pixel*Frame)                       : 0.206
Stream size                              : 1.29 GiB (89%)
Writing library                          : XviD 73
Audio
ID                                       : 1
Format                                   : MPEG Audio
Format version                           : Version 1
Format profile                           : Layer 3
Codec ID                                 : 55
Codec ID/Hint                            : MP3
Duration                                 : 2h 50mn
Bit rate mode                            : Constant
Bit rate                                 : 128 Kbps
Channel(s)                               : 2 channels
Sampling rate                            : 48.0 KHz
Compression mode                         : Lossy
Stream size                              : 156 MiB (10%)
Alignment                                : Aligned on interleaves
Interleave, duration                     : 42 ms (1.00 video frame)
Interleave, preload duration             : 504 ms
Writing library                          : LAME3.99r
Encoding settings                        : -m s -V 4 -q 2 -lowpass 17 -b 128
-Релиз группы -

_________________
Показать сообщения:    

Текущее время: Сегодня 20:55

Часовой пояс: GMT



Вы не можете начинать темы
Вы не можете отвечать на сообщения
Вы не можете редактировать свои сообщения
Вы не можете удалять свои сообщения
Вы не можете голосовать в опросах
Вы не можете прикреплять файлы к сообщениям
Вы не можете скачивать файлы