Важное объявление!
У Нас Все раздачи мультитрекерные, при нуле пиров в релизах, можете смело вставать на закачку!
 
Автор Сообщение

HUNTER

Стаж:
4 года 4 месяца
Сообщений:
56809

Репутация: 101

[+] [-]
Вне форума [Профиль] [ЛС]

Крепость: щитом и мечом
Страна: Россия
Жанр: Мультипликация, военная сказка, приключения
Продолжительность: 01:16:43
Год выпуска: 2015
Субтитры: отсутствуют
Режиссёр: Фёдор Дмитриев
Роли озвучивали: Пётр Фёдоров, Евгений Стычкин, Елена Шульман, Екатерина Гороховская, Вадим Никитин, Олег Куликович, Сергей Русскин, Михаил Хрусталёв, Анатолий Петров, и др.
Описание: 1609 год. Идёт война. Польско-Литовские войска взяли в осаду Смоленск, но Русский гарнизон во главе с воеводой Михаилом Шеиным готов держать оборону до конца. Смоленск - главная крепость на пути захватчиков к Москве, и его нельзя сдавать без боя. Об этом знают даже дети. Мальчик Сашка лепит самодельные бомбы из теста и колдует в защиту города - вызывает на помощь царя с огненным щитом и пламенным копьём. Пока волшебный царь не пришёл, Сашка и его друг Фёдор просятся в помощники к воеводе. Им предстоит разрушить коварные планы Польского короля Сигизмунда третьего и справиться с нечистой силой, что по ночам бродит по осаждённой крепости...

Качество: HDRip
Формат: AVI
Видео: XviD 73 MPEG-4, 720x304 (2.35:1) 24.000 fps, ~1214 kbps avg, 0.231 bit/pixel
Аудио: MP-3 Joint stereo, CBR 128 kbps 2 ch, 48.0 KHz

MediaInfo

ОбщееПолное имя : V:\Крепость_щитом_и_мечом_2015_HDRip_[rutracker.org].aviФормат : AVIФормат/Информация : Audio Video InterleaveРазмер файла : 743 МбайтПродолжительность : 1 ч. 16 м.Общий поток : 1351 Кбит/секПрограмма кодирования : VirtualDubModRus 1.5.10.2 (build 2542/release)Библиотека кодирования : VirtualDubMod build 2542/release
ВидеоИдентификатор : 0Формат : MPEG-4 VisualПрофиль формата : Advanced Simple@L5Параметр BVOP формата : 2Параметр QPel формата : НетПараметр GMC формата : Без точки переходаПараметр матрицы формата : Default (MPEG)Идентификатор кодека : DX50Идентификатор кодека/Подсказка : DivX 5Продолжительность : 1 ч. 16 м.Битрейт : 1214 Кбит/секШирина : 720 пикселейВысота : 304 пикселяСоотношение сторон : 2,35:1Частота кадров : 24,000 кадра/секЦветовое пространство : YUVСубдискретизация насыщенности : 4:2:0Битовая глубина : 8 битТип развёртки : ПрогрессивнаяМетод сжатия : С потерямиБит/(Пиксели*Кадры) : 0.231Размер потока : 668 Мбайт (90%)Библиотека кодирования : XviD 73
АудиоИдентификатор : 1Формат : MPEG AudioВерсия формата : Version 1Профиль формата : Layer 3Режим : Joint stereoРасширение режима : MS StereoИдентификатор кодека : 55Идентификатор кодека/Подсказка : MP3Продолжительность : 1 ч. 16 м.Вид битрейта : ПостоянныйБитрейт : 128 Кбит/секКаналы : 2 каналаЧастота : 48,0 КГцМетод сжатия : С потерямиРазмер потока : 70,4 Мбайт (9%)Выравнивание : Соединение по промежуткамПродолжительность промежутка : 42 мс. (1,00 видеокадр)Время предзагрузки промежутка : 504 мс.Библиотека кодирования : LAME3.99rНастройки программы : -m j -V 4 -q 2 -lowpass 17 -b 128

Скриншоты


Дополнительная информация

Время раздачи - по возможности.

_________________
Показать сообщения:    

Текущее время: Сегодня 16:28

Часовой пояс: GMT



Вы не можете начинать темы
Вы не можете отвечать на сообщения
Вы не можете редактировать свои сообщения
Вы не можете удалять свои сообщения
Вы не можете голосовать в опросах
Вы не можете прикреплять файлы к сообщениям
Вы не можете скачивать файлы