Важное объявление!
У Нас Все раздачи мультитрекерные, при нуле пиров в релизах, можете смело вставать на закачку!
 
Автор Сообщение

HUNTER

Стаж:
4 года 4 месяца
Сообщений:
56733

Репутация: 101

[+] [-]
Вне форума [Профиль] [ЛС]

Крепкий орешек: Хороший день, чтобы умереть / A Good Day to Die Hard / Extended Cut-
Страна: США
Жанр: боевик, триллер, криминал
Год выпуска: 2013
Продолжительность: 01:41:11
Перевод: Профессиональный (дублированный) BD EUR
Cубтитры: русские, украинские, английские
Оригинальная аудиодорожка: английский-Режиссер: Джон Мур / John Moore
В ролях: Брюс Уиллис, Джай Кортни, Себастьян Кох, Юлия Снигирь, Радивойе Буквич, Сергей Колесников, Мэри Элизабет Уинстэд, Коул Хаузер, Амори Ноласко, Роман Лукнар.
Описание: Джон МакКлейн прибывает в Москву, чтобы вызволить из тюрьмы своего непредсказуемого сына, но холодная голова и железные мускулы вязнут в паутине российской действительности. Дело, в которое влип МакКлейн-младший, оказывается настолько «опасной трясиной», что отцу и сыну, чтобы выжить и в очередной раз спасти мир, приходится объединить свои усилия, забыв прежние, казалось бы, непреодолимые разногласия.-Релиз: ThD!
Тип релиза: BDRip 720p
Контейнер: MKV | Sample
Видео: 1280x694 (1.85:1), 23.976 fps, 10400 kbps avg
Аудио 1: 48 kHz, DTS, 24 bit, (L,C,R,l,r) + LFE ch, 755.00 kbps avg (Rus)
Аудио 2: 48 kHz, AC3, 16 bit, (L,C,R,l,r) + LFE ch, 448.00 kbps avg (Ukr)
Аудио 3: 48 kHz, DTS, 24 bit, (L,C,R,l,r) + LFE ch, 1509.00 kbps avg (Eng)

Скриншоты

Медиаинфо

Формат : Matroska
Версия формата : Version 4 / Version 2
Размер файла : 9,48 Гбайт
Продолжительность : 1 ч. 41 м.
Общий поток : 13,4 Мбит/сек
Название фильма : A Good Day to Die Hard (2013) [Extended Cut] - Release for HDCLUB
Дата кодирования : UTC 2014-01-11 20:32:16
Программа кодирования : mkvmerge v6.6.0 ('The Edge Of The In Between') built on Dec 1 2013 17:55:00
Библиотека кодирования : libebml v1.3.0 + libmatroska v1.4.1
Видео
Идентификатор : 1
Формат : AVC
Формат/Информация : Advanced Video Codec
Профиль формата : High@L4.1
Параметр CABAC формата : Да
Параметр ReFrames формата : 9 кадров
Идентификатор кодека : V_MPEG4/ISO/AVC
Продолжительность : 1 ч. 41 м.
Битрейт : 10,4 Мбит/сек
Ширина : 1280 пикселей
Высота : 694 пикселя
Соотношение сторон : 1,85:1
Режим частоты кадров : Постоянный
Частота кадров : 23,976 кадра/сек
Цветовое пространство : YUV
Субдискретизация насыщенности : 4:2:0
Битовая глубина : 8 бит
Тип развёртки : Прогрессивная
Бит/(Пиксели*Кадры) : 0.490
Размер потока : 7,37 Гбайт (78%)
Заголовок : A Good Day to Die Hard (2013) [Extended Cut] - Release for HDCLUB
Библиотека кодирования : x264 core 133 r2334kMod a3ac64b
Настройки программы : cabac=1 / ref=9 / deblock=1:-3:-3 / analyse=0x3:0x133 / me=umh / subme=9 / psy=1 / fade_compensate=0.00 / psy_rd=1.05:0.00 / mixed_ref=1 / me_range=64 / chroma_me=1 / trellis=2 / 8x8dct=1 / cqm=0 / deadzone=21,11 / fast_pskip=0 / chroma_qp_offset=-2 / threads=16 / lookahead_threads=4 / sliced_threads=0 / nr=0 / decimate=0 / interlaced=0 / bluray_compat=0 / constrained_intra=0 / bframes=12 / b_pyramid=2 / b_adapt=2 / b_bias=0 / direct=3 / weightb=1 / open_gop=0 / weightp=2 / keyint=250 / keyint_min=23 / scenecut=40 / intra_refresh=0 / rc=crf / mbtree=0 / crf=18.5000 / qcomp=0.80 / qpmin=0 / qpmax=69 / qpstep=4 / ip_ratio=1.40 / pb_ratio=1.25 / aq=2:0.95
Язык : English
Default : Да
Forced : Нет
Аудио #1
Идентификатор : 2
Формат : DTS
Формат/Информация : Digital Theater Systems
Режим : 16
Параметр Endianness формата : Big
Идентификатор кодека : A_DTS
Продолжительность : 1 ч. 41 м.
Вид битрейта : Постоянный
Битрейт : 755 Кбит/сек
Каналы : 6 каналов
Расположение каналов : Front: L C R, Side: L R, LFE
Частота : 48,0 КГц
Битовая глубина : 24 бит
Метод сжатия : С потерями
Размер потока : 546 Мбайт (6%)
Заголовок : DTS 5.1 @ 768 kbps - DUB, Blu-ray EUR
Язык : Russian
Default : Да
Forced : Нет
Аудио #2
Идентификатор : 3
Формат : AC-3
Формат/Информация : Audio Coding 3
Расширение режима : CM (complete main)
Параметр Endianness формата : Big
Идентификатор кодека : A_AC3
Продолжительность : 1 ч. 41 м.
Вид битрейта : Постоянный
Битрейт : 448 Кбит/сек
Каналы : 6 каналов
Расположение каналов : Front: L C R, Side: L R, LFE
Частота : 48,0 КГц
Битовая глубина : 16 бит
Метод сжатия : С потерями
Размер потока : 324 Мбайт (3%)
Заголовок : AC3 5.1 @ 448 kbps - DUB, Blu-ray EUR
Язык : Ukrainian
Default : Нет
Forced : Нет
Аудио #3
Идентификатор : 4
Формат : DTS
Формат/Информация : Digital Theater Systems
Профиль формата : ES
Режим : 16
Параметр Endianness формата : Big
Идентификатор кодека : A_DTS
Продолжительность : 1 ч. 41 м.
Вид битрейта : Постоянный
Битрейт : 1509 Кбит/сек
Каналы : 6 каналов
Расположение каналов : Front: L C R, Side: L R, LFE
Частота : 48,0 КГц
Битовая глубина : 24 бит
Метод сжатия : С потерями
Размер потока : 1,07 Гбайт (11%)
Заголовок : DTS-ES 5.1 @ 1536 kbps
Язык : English
Default : Нет
Forced : Нет
Текст #1
Идентификатор : 5
Формат : UTF-8
Идентификатор кодека : S_TEXT/UTF8
Идентификатор кодека/Информация : UTF-8 Plain Text
Заголовок : Forced
Язык : Russian
Default : Да
Forced : Нет
Текст #2
Идентификатор : 6
Формат : UTF-8
Идентификатор кодека : S_TEXT/UTF8
Идентификатор кодека/Информация : UTF-8 Plain Text
Язык : Russian
Default : Нет
Forced : Нет
Текст #3
Идентификатор : 7
Формат : UTF-8
Идентификатор кодека : S_TEXT/UTF8
Идентификатор кодека/Информация : UTF-8 Plain Text
Язык : Ukrainian
Default : Нет
Forced : Нет
Текст #4
Идентификатор : 8
Формат : UTF-8
Идентификатор кодека : S_TEXT/UTF8
Идентификатор кодека/Информация : UTF-8 Plain Text
Язык : English
Default : Нет
Forced : Нет
Текст #5
Идентификатор : 9
Формат : UTF-8
Идентификатор кодека : S_TEXT/UTF8
Идентификатор кодека/Информация : UTF-8 Plain Text
Заголовок : SDH
Язык : English
Default : Нет
Forced : Нет
Текст #6
Идентификатор : 10
Формат : UTF-8
Идентификатор кодека : S_TEXT/UTF8
Идентификатор кодека/Информация : UTF-8 Plain Text
Заголовок : SDH-COLORED
Язык : English
Default : Нет
Forced : Нет
Меню
00:00:00.000 : en:00:00:00.000
00:02:45.999 : en:00:02:45.999
00:05:02.135 : en:00:05:02.135
00:09:36.242 : en:00:09:36.242
00:12:13.900 : en:00:12:13.900
00:15:25.550 : en:00:15:25.550
00:18:02.999 : en:00:18:02.999
00:22:31.350 : en:00:22:31.350
00:28:31.376 : en:00:28:31.376
00:32:28.863 : en:00:32:28.863
00:36:05.914 : en:00:36:05.914
00:39:53.641 : en:00:39:53.641
00:42:20.621 : en:00:42:20.621
00:46:04.720 : en:00:46:04.720
00:50:30.986 : en:00:50:30.986
00:53:21.657 : en:00:53:21.657
00:57:05.547 : en:00:57:05.547
01:01:46.619 : en:01:01:46.619
01:05:03.650 : en:01:05:03.650
01:10:24.053 : en:01:10:24.053
01:14:04.982 : en:01:14:04.982
01:17:50.416 : en:01:17:50.416
01:20:18.021 : en:01:20:18.021
01:24:05.832 : en:01:24:05.832
01:26:17.923 : en:01:26:17.923
01:28:05.488 : en:01:28:05.488
01:32:37.802 : en:01:32:37.802
01:35:24.927 : en:01:35:24.927

_________________
Показать сообщения:    

Текущее время: Сегодня 05:28

Часовой пояс: GMT



Вы не можете начинать темы
Вы не можете отвечать на сообщения
Вы не можете редактировать свои сообщения
Вы не можете удалять свои сообщения
Вы не можете голосовать в опросах
Вы не можете прикреплять файлы к сообщениям
Вы не можете скачивать файлы