Важное объявление!
У Нас Все раздачи мультитрекерные, при нуле пиров в релизах, можете смело вставать на закачку!
 
Автор Сообщение

HUNTER

Стаж:
4 года 4 месяца
Сообщений:
56790

Репутация: 101

[+] [-]
Вне форума [Профиль] [ЛС]

Красота по-американски / American Beauty-
Страна: США
Жанр: Драма
Год выпуска: 1999
Продолжительность: 02:01:39
Перевод: Профессиональный (многоголосый закадровый) ОРТ
Перевод 2: Профессиональный (многоголосый закадровый) Премьер Мультимедиа
Перевод 3: Профессиональный (многоголосый закадровый) Universal Pictures Rus
Перевод 4: Авторский (одноголосый закадровый) Андрей Гаврилов
Перевод 5: Одноголосый закадровый - Завгородский
Перевод 6: Авторский (одноголосый закадровый) Визгунов
Cубтитры: Русские, Английские
Оригинальная аудиодорожка: английский
Режиссер: Сэм Мендес / Sam Mendes
В ролях: Кевин Спейси, Аннетт Бенинг, Тора Бёрч, Уэс Бентли, Мена Сувари, Крис Купер, Питер Галлахер, Эллисон Джэнни, Скотт Бакула, Сэм Робардс
Описание: Лестер Бернэм переживает кризис среднего возраста. Его не уважают и не ценят на работе, а от счастливой семьи осталась лишь видимость. У жены Кэролайн страстный роман с коллегой по работе, а угрюмая дочь-подросток Джейн увлечена соседским парнем, побывавшим в психиатрической больнице.
Терзаемый душевными муками, Лестер впадает в глубокую депрессию. Но неожиданно для себя влюбляется в одноклассницу дочери Анджелу. Эта пылкая страсть дает Лестеру мощный жизненный импульс. Он ощущает прилив сил и желаний, и готов снова радоваться красоте.
Сэмпл: https://yadi.sk/i/onYLBzzZUWC2J
Тип релиза: BDRip 720p
Контейнер: MKV
Видео: AVC, 1280x546 (2.35:1), 7000 Kbps, 23,976 fps, 0,418 bpp
Аудио 1: Русский, AC3,192 Kbps, CBR, 2 ch, 16 bit [MVO] ОРТ
Аудио 2: Русский, DTS, 1510 Kbps, CBR, 6 ch, 24 bit [MVO] Премьер Мультимедиа
Аудио 3: Русский, AC3, 640 Kbps, CBR, 6 ch, 16 bit [MVO] Universal Pictures Rus
Аудио 4: Русский, DTS, 1510 Kbps, CBR, 6 ch, 24 bit [AVO] Андрей Гаврилов
Аудио 5: Русский, AC3, 448 Kbps, CBR, 6 ch, 16 bit [VO] Завгородский
Аудио 6: Русский, DTS, 48000Hz, 768kbps, 6ch [AVO] Визгунов
Аудио 7: Английский, DTS, 1510 Kbps, CBR;6 ch, 24 bit [Оригинал]
Аудио 8: Русский, AC3, 192 Kbps, CBR, 2 ch, 16 bit [Комментарии]
Аудио 9: Английский, AC3, 224 Kbps, CBR, 2 ch, 16 bit [Комментарии]
Формат субтитров: softsub (SRT)

MediaInfo

General
Unique ID : 178519106826127211347940424642241780478 (0x864D87835C974A748B330AA114445AFE)
Complete name : D:\Фильмы и сериалы\American.Beauty.1999.BDRip.720p (1).mkv
Format : Matroska
Format version : Version 4 / Version 2
File size : 11.9 GiB
Duration : 2h 1mn
Overall bit rate : 14.0 Mbps
Encoded date : UTC 2014-06-23 11:43:18
Writing application : mkvmerge v7.0.0 ('Where We Going') 64bit built on Jun 9 2014 15:16:27
Writing library : libebml v1.3.0 + libmatroska v1.4.1
_STATISTICS_WRITING_APP : mkvmerge v7.0.0 ('Where We Going') 64bit built on Jun 9 2014 15:16:27
_STATISTICS_WRITING_DATE_UTC : 2014-06-23 11:43:18
_STATISTICS_TAGS : BPS DURATION NUMBER_OF_FRAMES NUMBER_OF_BYTES
DURATION : 01:55:29.005000000
NUMBER_OF_FRAMES : 1256
NUMBER_OF_BYTES : 47761
Video
ID : 1
Format : AVC
Format/Info : Advanced Video Codec
Format profile : High@L4.1
Format settings, CABAC : Yes
Format settings, ReFrames : 11 frames
Codec ID : V_MPEG4/ISO/AVC
Duration : 2h 1mn
Nominal bit rate : 7 000 Kbps
Width : 1 280 pixels
Height : 546 pixels
Display aspect ratio : 2.35:1
Frame rate mode : Constant
Frame rate : 23.976 fps
Color space : YUV
Chroma subsampling : 4:2:0
Bit depth : 8 bits
Scan type : Progressive
Bits/(Pixel*Frame) : 0.418
Title : American Beauty (1999)
Writing library : x264 core 106 r1732kMod b20059a
Encoding settings : cabac=1 / ref=11 / deblock=1:-3:-3 / analyse=0x3:0x113 / me=umh / subme=10 / psy=1 / psy_rd=1.05:0.05 / mixed_ref=1 / me_range=48 / chroma_me=1 / trellis=2 / 8x8dct=1 / cqm=0 / deadzone=6,6 / fast_pskip=0 / chroma_qp_offset=-3 / threads=6 / sliced_threads=0 / nr=0 / decimate=0 / interlaced=0 / constrained_intra=0 / bframes=11 / b_pyramid=2 / b_adapt=2 / b_bias=0 / direct=3 / weightb=1 / open_gop=0 / weightp=2 / keyint=250 / keyint_min=25 / scenecut=40 / intra_refresh=0 / rc=2pass / mbtree=0 / bitrate=7000 / ratetol=1.0 / qcomp=0.60 / qpmin=10 / qpmax=51 / qpstep=4 / cplxblur=20.0 / qblur=0.5 / ip_ratio=1.40 / pb_ratio=1.30 / aq=1:0.70
Language : English
Default : Yes
Forced : No
_STATISTICS_WRITING_APP : mkvmerge v7.0.0 ('Where We Going') 64bit built on Jun 9 2014 15:16:27
_STATISTICS_WRITING_DATE_UTC : 2014-06-23 11:43:18
_STATISTICS_TAGS : BPS DURATION NUMBER_OF_FRAMES NUMBER_OF_BYTES
DURATION : 02:01:39.918000000
NUMBER_OF_FRAMES : 175023
NUMBER_OF_BYTES : 6387429845
Audio #1
ID : 2
Format : AC-3
Format/Info : Audio Coding 3
Mode extension : CM (complete main)
Format settings, Endianness : Big
Codec ID : A_AC3
Duration : 2h 1mn
Bit rate mode : Constant
Bit rate : 192 Kbps
Channel(s) : 2 channels
Channel positions : Front: L R
Sampling rate : 48.0 KHz
Bit depth : 16 bits
Compression mode : Lossy
Stream size : 167 MiB (1%)
Title : MVO (ОРТ)
Language : Russian
Default : Yes
Forced : No
Audio #2
ID : 3
Format : DTS
Format/Info : Digital Theater Systems
Mode : 16
Format settings, Endianness : Big
Codec ID : A_DTS
Duration : 2h 1mn
Bit rate mode : Constant
Bit rate : 1 510 Kbps
Channel(s) : 6 channels
Channel positions : Front: L C R, Side: L R, LFE
Sampling rate : 48.0 KHz
Bit depth : 24 bits
Compression mode : Lossy
Stream size : 1.28 GiB (11%)
Title : MVO (Премьер Мультимедиа)
Language : Russian
Default : No
Forced : No
Audio #3
ID : 4
Format : AC-3
Format/Info : Audio Coding 3
Mode extension : CM (complete main)
Format settings, Endianness : Big
Codec ID : A_AC3
Duration : 2h 1mn
Bit rate mode : Constant
Bit rate : 640 Kbps
Channel(s) : 6 channels
Channel positions : Front: L C R, Side: L R, LFE
Sampling rate : 48.0 KHz
Bit depth : 16 bits
Compression mode : Lossy
Stream size : 557 MiB (5%)
Title : MVO (Universal Pictures Rus)
Language : Russian
Default : No
Forced : No
Audio #4
ID : 5
Format : DTS
Format/Info : Digital Theater Systems
Mode : 16
Format settings, Endianness : Big
Codec ID : A_DTS
Duration : 2h 1mn
Bit rate mode : Constant
Bit rate : 1 509 Kbps
Channel(s) : 6 channels
Channel positions : Front: L C R, Side: L R, LFE
Sampling rate : 48.0 KHz
Bit depth : 24 bits
Compression mode : Lossy
Stream size : 1.28 GiB (11%)
Title : AVO (Гаврилов)
Language : Russian
Default : No
Forced : No
Audio #5
ID : 6
Format : AC-3
Format/Info : Audio Coding 3
Mode extension : CM (complete main)
Format settings, Endianness : Big
Codec ID : A_AC3
Duration : 2h 1mn
Bit rate mode : Constant
Bit rate : 448 Kbps
Channel(s) : 6 channels
Channel positions : Front: L C R, Side: L R, LFE
Sampling rate : 48.0 KHz
Bit depth : 16 bits
Compression mode : Lossy
Stream size : 390 MiB (3%)
Title : AVO (Завгородний)
Language : Russian
Default : No
Forced : No
Audio #6
ID : 7
Format : DTS
Format/Info : Digital Theater Systems
Mode : 16
Format settings, Endianness : Big
Codec ID : A_DTS
Duration : 2h 1mn
Bit rate mode : Constant
Bit rate : 755 Kbps
Channel(s) : 6 channels
Channel positions : Front: L C R, Side: L R, LFE
Sampling rate : 48.0 KHz
Bit depth : 24 bits
Compression mode : Lossy
Stream size : 657 MiB (5%)
Title : Визгунов
Language : Russian
Default : No
Forced : No
Audio #7
ID : 8
Format : DTS
Format/Info : Digital Theater Systems
Codec ID : A_DTS
Duration : 2h 1mn
Channel(s) : 6 channels
Sampling rate : 48.0 KHz
Compression mode : Lossy
Title : Original
Language : English
Default : No
Forced : No
Audio #8
ID : 9
Format : AC-3
Format/Info : Audio Coding 3
Codec ID : A_AC3
Duration : 2h 1mn
Channel(s) : 2 channels
Sampling rate : 48.0 KHz
Compression mode : Lossy
Title : Комментарии
Language : English
Default : No
Forced : No
Audio #9
ID : 10
Format : AC-3
Format/Info : Audio Coding 3
Codec ID : A_AC3
Duration : 2h 1mn
Channel(s) : 2 channels
Sampling rate : 48.0 KHz
Compression mode : Lossy
Title : Комментарии
Language : Russian
Default : No
Forced : No
Text #1
ID : 11
Format : UTF-8
Codec ID : S_TEXT/UTF8
Codec ID/Info : UTF-8 Plain Text
Title : Полные
Language : Russian
Default : No
Forced : No
Text #2
ID : 12
Format : UTF-8
Codec ID : S_TEXT/UTF8
Codec ID/Info : UTF-8 Plain Text
Title : Full
Language : English
Default : No
Forced : No
Text #3
ID : 13
Format : UTF-8
Codec ID : S_TEXT/UTF8
Codec ID/Info : UTF-8 Plain Text
Title : SDH
Language : English
Default : No
Forced : No
Menu
00:00:00.000 : en:The High Point of My Day (Main Title)
00:04:25.724 : en:Job Description
00:10:20.078 : en:I Will Sell This House Today
00:13:52.790 : en:The Gym
00:19:05.603 : en:Spectacular
00:23:52.097 : en:Welcome to the Neighborhood
00:26:28.712 : en:I'm Just Curious
00:30:01.383 : en:My Personal Hero
00:35:51.399 : en:I Love Root Beer
00:39:53.600 : en:America's Weirdest Home Videos
00:42:31.466 : en:Choking the Bishop
00:46:11.936 : en:I Want to Look Good Naked
00:50:05.920 : en:Mom's Dad
00:51:25.708 : en:An Ordinary Guy With Nothing to Lose
00:55:31.370 : en:The Royal Treatment
00:59:50.212 : en:The Most Beautiful Thing
01:05:03.608 : en:Pass the Asparagus
01:09:17.737 : en:Don't Give up on Me Dad
01:13:29.614 : en:Mr. Smarty Man
01:17:49.748 : en:Massive Psycological Damage
01:23:23.707 : en:The Day You Die
01:26:54.876 : en:Smile, You're at Smiley's
01:32:41.306 : en:Do You Like Muscles?
01:38:44.001 : en:Our Marriage Is Just for Show
01:42:28.851 : en:You Couldn't Be Ordinary if You Tried
01:48:47.187 : en:I'm Great
01:51:51.914 : en:My Stupid Little Life
01:55:58.952 : en:End Credits

Скриншоты


_________________
Показать сообщения:    

Текущее время: Сегодня 11:56

Часовой пояс: GMT



Вы не можете начинать темы
Вы не можете отвечать на сообщения
Вы не можете редактировать свои сообщения
Вы не можете удалять свои сообщения
Вы не можете голосовать в опросах
Вы не можете прикреплять файлы к сообщениям
Вы не можете скачивать файлы