Важное объявление!
У Нас Все раздачи мультитрекерные, при нуле пиров в релизах, можете смело вставать на закачку!
 
Автор Сообщение

HUNTER

Стаж:
4 года 4 месяца
Сообщений:
56719

Репутация: 101

[+] [-]
Вне форума [Профиль] [ЛС]

Красная река / Red RiverOriginal Theatrical Version
Страна: США
Жанр: вестерн
Год выпуска: 1948
Продолжительность: 02:07:09
Перевод: Субтитры
Cубтитры: русские, английские
Оригинальная аудиодорожка: английский-Режиссер: Ховард Хоукс / Howard Hawks, Артур Россон / Arthur Rosson
В ролях: Джон Уэйн, Монтгомери Клифт, Джоэнн Дрю, Уолтер Бреннан, Колин Грэй, Гарри Кэри, Джон Айрленд, Ноа Бири-мл., Гарри Кэри мл., Пол Фикс, Хэнк Уорден, Мики Кун, Рэй Хайк, Хол Таляферро, Чиф Скай Игл
Описание: По роману Бордена Чейза «Тропа Чисхолма».
На Запад идет большой караван. Тяжелые, медленные повозки тащат измотанные лошади и скорость этого усталого, еле-еле передвигающегося «организма» настолько мала, что уже даже это представляет опасность, так как на такой караван легче всего напасть и разграбить. И в это время самый отчаянный и пассионарный малый по имени Том Дансон решает наплевать на все, в том числе и на свою возлюбленную Фен, и податься на Юг. Туда, где настоящего ковбоя манит сказочно богатая и многообещающая Красная Река...
IMDb || КиноПоиск-Тип релиза: BDRip 720p [DON]
Контейнер: MKV
Видео: x264/AVC, 986x720 at 23.976 fps, 10.3 Mbps
Аудио: English: 48 kHz, AC3, 1.0 ch, 640 kbps
Формат субтитров: softsub (SRT)
Сэмпл

Дополнительно

Отличия theatrical версии от pre-release:
  • страницы текста заменены на закадровый голос Уолтера Бреннана, повествование чуть расширено, ведется от имени его героя
  • отсутствует ночная сцена в лагере перед встречей погонщиков с караваном Донегола
  • сокращена финальная сцена (вырезаны уговоры Тома достать Мэтта пистолет и пара-тройка выстрелов)
  • местами иное музыкальное сопровождение
  • незначительные эпизодические сокращения/изменения на протяжении всего фильма

MediaInfo

General
Unique ID : 212880451106636670015232778755658807678 (0xA0274895D24894308E9C8651C3E8F97E)
Complete name : I:\Красная река.Театральная версия\Red.River.Theatrical.1948.Criterion.720p-DON. rutracker.mkv
Format : Matroska
Format version : Version 2
File size : 9.95 GiB
Duration : 2h 7mn
Overall bit rate : 11.2 Mbps
Movie name : Release for RuTracker
Writing application : mkvmerge v5.0.1 ('Es ist Sommer') built on Nov 6 2011 16:23:40
Writing library : libebml v1.2.2 + libmatroska v1.3.0
Video
ID : 1
Format : AVC
Format/Info : Advanced Video Codec
Format profile : High@L4.1
Format settings, CABAC : Yes
Format settings, ReFrames : 11 frames
Codec ID : V_MPEG4/ISO/AVC
Duration : 2h 7mn
Bit rate : 10.3 Mbps
Width : 986 pixels
Height : 720 pixels
Display aspect ratio : 4:3
Frame rate mode : Constant
Frame rate : 23.976 fps
Color space : YUV
Chroma subsampling : 4:2:0
Bit depth : 8 bits
Scan type : Progressive
Bits/(Pixel*Frame) : 0.607
Stream size : 9.18 GiB (92%)
Title : Red.River.Theatrical.1948.Criterion.720p-DON. rutracker
Writing library : x264 core 142 r2409+42 04be48a tMod [8-bit@4:2:0 X86_64]
Encoding settings : cabac=1 / ref=11 / deblock=1:-3:-3 / analyse=0x3:0x133 / me=umh / subme=10 / psy=1 / fade_compensate=0.00 / psy_rd=1.05:0.10 / mixed_ref=1 / me_range=48 / chroma_me=0 / trellis=2 / 8x8dct=1 / cqm=0 / deadzone=21,11 / fast_pskip=0 / chroma_qp_offset=-3 / threads=6 / lookahead_threads=1 / sliced_threads=0 / nr=0 / decimate=1 / interlaced=0 / bluray_compat=0 / constrained_intra=0 / fgo=0 / bframes=11 / b_pyramid=2 / b_adapt=2 / b_bias=0 / direct=3 / weightb=1 / open_gop=0 / weightp=2 / keyint=250 / keyint_min=23 / scenecut=40 / intra_refresh=0 / rc=crf / mbtree=0 / crf=17.2500 / qcomp=0.70 / qpmin=0:0:0 / qpmax=69:69:69 / qpstep=4 / ip_ratio=1.35 / pb_ratio=1.18 / aq=1:0.50 / aq-sensitivity=10.00 / aq-factor=1.00:1.00:1.00 / aq2=0 / aq3=0
Language : English
Default : Yes
Forced : No
Audio
ID : 2
Format : AC-3
Format/Info : Audio Coding 3
Mode extension : CM (complete main)
Format settings, Endianness : Big
Codec ID : A_AC3
Duration : 2h 7mn
Bit rate mode : Constant
Bit rate : 640 Kbps
Channel(s) : 1 channel
Channel positions : Front: C
Sampling rate : 48.0 KHz
Bit depth : 16 bits
Compression mode : Lossy
Stream size : 582 MiB (6%)
Language : English
Default : Yes
Forced : No
Text #1
ID : 3
Format : UTF-8
Codec ID : S_TEXT/UTF8
Codec ID/Info : UTF-8 Plain Text
Language : Russian
Default : Yes
Forced : No
Text #2
ID : 4
Format : UTF-8
Codec ID : S_TEXT/UTF8
Codec ID/Info : UTF-8 Plain Text
Language : English
Default : No
Forced : No
Menu
00:00:00.000 : en:Early Tales of Texas
00:02:06.668 : en:Leaving the train
00:06:11.580 : en:Indians
00:10:46.938 : en:"He'll do"
00:13:31.686 : en:Red River brand
00:19:56.862 : en:Broke
00:24:46.402 : en:Every steer and cow
00:29:15.504 : en:Matthew and Cherry
00:31:37.896 : en:No quitting
00:36:00.575 : en:"Take'em to Missouri"
00:39:07.011 : en:West or north
00:42:18.077 : en:No rest
00:46:29.829 : en:Stampede
00:55:39.878 : en:Punishment
00:58:33.301 : en:Dissent
01:08:20.805 : en:Crossing
01:13:14.724 : en:"I'm the law"
01:19:51.996 : en:Dire promise
01:21:13.494 : en:Comanche arrows
01:25:09.146 : en:"Women and coffee!"
01:28:10.118 : en:To the rescue
01:32:55.320 : en:Nighttime encounter
01:41:11.732 : en:Familiar feeling
01:48:34.425 : en:Sights for sore eyes
01:51:13.542 : en:Abilene
01:55:14.074 : en:Historic date
01:59:21.863 : en:Changing the brand

Скриншоты

Wild Side Video (Prerelease) vs Criterion (Theatrical) _______________________________________

_________________
Показать сообщения:    

Текущее время: Сегодня 22:21

Часовой пояс: GMT



Вы не можете начинать темы
Вы не можете отвечать на сообщения
Вы не можете редактировать свои сообщения
Вы не можете удалять свои сообщения
Вы не можете голосовать в опросах
Вы не можете прикреплять файлы к сообщениям
Вы не можете скачивать файлы