Важное объявление!
У Нас Все раздачи мультитрекерные, при нуле пиров в релизах, можете смело вставать на закачку!
 
Автор Сообщение

HUNTER

Стаж:
4 года 4 месяца
Сообщений:
56822

Репутация: 101

[+] [-]
Вне форума [Профиль] [ЛС]

Красная Королева убивает семь раз / La Dama rossa uccide sette volte / The Lady in Red Kills Seven Times
-Страна: Италия
Жанр: Триллер, джалло
Год выпуска: 1972
Продолжительность: 01:39:15-Перевод 1: Одноголосый закадровый Тимофеев
Перевод 2: Одноголосый закадровый cmert-Cубтитры: английские, русские
Оригинальная аудиодорожка: итальянский-Режиссер: Эмилио Миралья / Emilio Miraglia-В ролях: Барбара Буше, Марина Мальфатти, Сибил Даннинг, Уго Пальяйи, Марино Масе, Пиа Джанкаро, Рудольф Шюндлер, Мария Антониетта Гуидо, Нино Корда-Описание:
Над дворянским родом Вильденбруков довлеет давнее проклятье. Много столетий назад между двумя сёстрами — Красной и Чёрной королевами шла непримиримая вражда, которая закончилась тем, что Чёрная королева убила Красную, нанеся последней семь ножевых ранений. Красная королева восстала из мёртвых и убила Чёрную королеву, а также ещё шестерых связанных с ней людей, дабы возместить всё количество полученных смертельных ранений. С тех пор обстоятельства противостояния Красной и Чёрной королев повторяются каждые сто лет. Наконец настал очередной период возобновления действия давнего проклятья. Мартин Хофман пытается защитить свою невесту Китти Вильденбрук от родового проклятья.-Доп. информация: рип сделан из этой раздачи [url=viewtopic.php?t=5237612]http://rutracker.org/forum/viewtopic.php?t=5237612[/url]-Сэмпл: Скачать-Тип релиза: BDRip 720p
Контейнер: MKV-Видео: 1 280x544 (2.35:1); 8000 Kbps; 23.976 fps;
Аудио 1: Russian; AC3; 48.0 KHz; 2ch; 192 Kbps VO Тимофеев
Аудио 2: Russian; AC3; 48.0 KHz; 2ch; 192 Kbps VO cmert
Аудио 3: Italian; FLAC; 48.0 KHz; 1ch; 218 Kbps

MediaInfo

Format : Matroska
Format version : Version 4 / Version 2
File size : 5.97 GiB
Duration : 1h 39mn
Overall bit rate mode : Variable
Overall bit rate : 8 601 Kbps
Movie name : Release for RuTracker
Encoded date : UTC 2016-08-14 16:12:31
Writing application : mkvmerge v8.3.0 ('Over the Horizon') 64bit
Writing library : libebml v1.3.1 + libmatroska v1.4.2
Attachments : poster.jpg
Video
ID : 1
Format : AVC
Format/Info : Advanced Video Codec
Format profile : High@L4.1
Format settings, CABAC : Yes
Format settings, ReFrames : 12 frames
Codec ID : V_MPEG4/ISO/AVC
Duration : 1h 39mn
Bit rate : 8 000 Kbps
Width : 1 280 pixels
Height : 544 pixels
Display aspect ratio : 2.35:1
Frame rate mode : Constant
Frame rate : 23.976 (24000/1001) fps
Color space : YUV
Chroma subsampling : 4:2:0
Bit depth : 8 bits
Scan type : Progressive
Bits/(Pixel*Frame) : 0.479
Stream size : 5.55 GiB (93%)
Writing library : x264 core 148 r2638 7599210
Encoding settings : cabac=1 / ref=12 / deblock=1:-3:-3 / analyse=0x3:0x133 / me=umh / subme=10 / psy=1 / psy_rd=1.00:0.50 / mixed_ref=1 / me_range=32 / chroma_me=1 / trellis=2 / 8x8dct=1 / cqm=0 / deadzone=21,11 / fast_pskip=0 / chroma_qp_offset=-4 / threads=6 / lookahead_threads=1 / sliced_threads=0 / nr=0 / decimate=0 / interlaced=0 / bluray_compat=0 / constrained_intra=0 / bframes=10 / b_pyramid=2 / b_adapt=2 / b_bias=0 / direct=3 / weightb=1 / open_gop=0 / weightp=2 / keyint=240 / keyint_min=23 / scenecut=40 / intra_refresh=0 / rc_lookahead=60 / rc=2pass / mbtree=0 / bitrate=8000 / ratetol=1.0 / qcomp=0.65 / qpmin=0 / qpmax=69 / qpstep=4 / cplxblur=20.0 / qblur=0.5 / vbv_maxrate=62500 / vbv_bufsize=78125 / nal_hrd=none / filler=0 / ip_ratio=1.40 / pb_ratio=1.30 / aq=1:1.00
Default : Yes
Forced : No
Audio #1
ID : 2
Format : AC-3
Format/Info : Audio Coding 3
Mode extension : CM (complete main)
Format settings, Endianness : Big
Codec ID : A_AC3
Duration : 1h 39mn
Bit rate mode : Constant
Bit rate : 192 Kbps
Channel(s) : 2 channels
Channel positions : Front: L R
Sampling rate : 48.0 KHz
Frame rate : 31.250 fps (1536 spf)
Compression mode : Lossy
Stream size : 136 MiB (2%)
Title : VO
Language : Russian
Default : Yes
Forced : No
Audio #2
ID : 3
Format : AC-3
Format/Info : Audio Coding 3
Mode extension : CM (complete main)
Format settings, Endianness : Big
Codec ID : A_AC3
Duration : 1h 39mn
Bit rate mode : Constant
Bit rate : 192 Kbps
Channel(s) : 2 channels
Channel positions : Front: L R
Sampling rate : 48.0 KHz
Frame rate : 31.250 fps (1536 spf)
Compression mode : Lossy
Stream size : 136 MiB (2%)
Title : VO cmert
Language : Russian
Default : No
Forced : No
Audio #3
ID : 4
Format : FLAC
Format/Info : Free Lossless Audio Codec
Codec ID : A_FLAC
Duration : 1h 39mn
Bit rate mode : Variable
Bit rate : 218 Kbps
Channel(s) : 1 channel
Channel positions : Front: C
Sampling rate : 48.0 KHz
Frame rate : 11.719 fps (4096 spf)
Bit depth : 16 bits
Stream size : 155 MiB (3%)
Writing library : libFLAC 1.3.1 (UTC 2014-11-25)
Default : No
Forced : No
Text #1
ID : 5
Format : UTF-8
Codec ID : S_TEXT/UTF8
Codec ID/Info : UTF-8 Plain Text
Duration : 1h 37mn
Bit rate : 87 bps
Count of elements : 1071
Stream size : 62.5 KiB (0%)
Language : Russian
Default : No
Forced : No
Text #2
ID : 6
Format : UTF-8
Codec ID : S_TEXT/UTF8
Codec ID/Info : UTF-8 Plain Text
Duration : 1h 36mn
Bit rate : 51 bps
Count of elements : 1022
Stream size : 36.4 KiB (0%)
Language : English
Default : No
Forced : No
Text #3
ID : 7
Format : UTF-8
Codec ID : S_TEXT/UTF8
Codec ID/Info : UTF-8 Plain Text
Duration : 1h 36mn
Bit rate : 64 bps
Count of elements : 1253
Stream size : 45.8 KiB (0%)
Title : SDH
Language : English
Default : No
Forced : No
Menu
00:00:00.000 : en:00:00:00.000
00:06:39.190 : en:00:06:39.190
00:13:02.657 : en:00:13:02.657
00:21:27.786 : en:00:21:27.786
00:30:25.157 : en:00:30:25.157
00:40:39.354 : en:00:40:39.354
00:49:06.902 : en:00:49:06.902
00:57:17.476 : en:00:57:17.476
01:04:12.557 : en:01:04:12.557
01:12:42.525 : en:01:12:42.525
01:24:17.636 : en:01:24:17.636
01:30:23.960 : en:01:30:23.960

Скриншоты


_________________
Показать сообщения:    

Текущее время: Сегодня 23:28

Часовой пояс: GMT



Вы не можете начинать темы
Вы не можете отвечать на сообщения
Вы не можете редактировать свои сообщения
Вы не можете удалять свои сообщения
Вы не можете голосовать в опросах
Вы не можете прикреплять файлы к сообщениям
Вы не можете скачивать файлы