Важное объявление!
У Нас Все раздачи мультитрекерные, при нуле пиров в релизах, можете смело вставать на закачку!
 
Автор Сообщение

димитри37

Стаж:
3 года 8 месяцев
Сообщений:
1237

Репутация: 127

[+] [-]
Вне форума [Профиль] [ЛС]


Красавчик Алфи, или Чего хотят мужчины / Alfie
Год выпуска: 2004
Страна: США, Великобритания
Жанр: комедия, драма
Продолжительность: 01:41:13.320
Перевод: Профессиональный (полное дублирование) Отсюда
Русские субтитры: нет
Режиссер: Чарльз Шайер / Charles Shyer
В ролях: Джуд Лоу, Рене Тейлор, Джейн Краковски, Джефф Хардинг, Мариса Томей, Кевин Рахм, Макс Моррис, Омар Эппс, Ниа Лонг, Гедде Ватанабе и др.
Описание: Молодой англичанин Алфи живет в Нью-Йорке и работает шофером лимузина в маленькой фирме, принадлежащей истеричному японцу. Когда за рулем роскошной машины сидит красавец, уже не так важно, чья она. Женщины кружат вокруг Алфи как мотыльки. Успех у противоположного пола развращает.
Бабник Алфи легко порхает от женщины к женщине, легко одаривает их своим вниманием и так же легко с ними расстается. Мало, кто отваживается на моногамию, когда вокруг столько искушений. Алфи даже не пытался остепениться. Ему нравится такая жизнь — сегодня одна подружка, завтра другая. Но, как правило, в жизни каждого человека наступает момент, когда приходится платить по счетам.

Качество: HDTVRip-AVC
Формат: MKV
Видео кодек: H.264
Аудио кодек: AC3
Видео: 1024x576, 25 fps, AVC MPEG-4, ~ 1795 kb/s
Аудио: 48 kHz, AC3 Dolby Digital, 2 ch (L R), ~224 kb/s

Скриншоты

MediaInfo

General
Complete name : D:\Alfie.2004.HDTVRip-AVC.mkv
Format : Matroska
File size : 1.46 GiB
Duration : 1h 41mn
Overall bit rate : 2 060 Kbps
Encoded date : UTC 2010-02-12 04:03:28
Writing application : mkvmerge v3.0.0 ('Hang up your Hang-Ups') built on Dec 12 2009 15:20:35
Writing library : libebml v0.7.9 + libmatroska v0.8.1
Video
ID : 1
Format : AVC
Format/Info : Advanced Video Codec
Format profile : High@L4.0
Format settings, CABAC : Yes
Format settings, ReFrames : 11 frames
Muxing mode : Container profile=Unknown@4.0
Codec ID : V_MPEG4/ISO/AVC
Duration : 1h 41mn
Bit rate : 1 795 Kbps
Nominal bit rate : 1 835 Kbps
Width : 1 024 pixels
Height : 576 pixels
Display aspect ratio : 16:9
Frame rate : 25.000 fps
Resolution : 24 bits
Colorimetry : 4:2:0
Scan type : Progressive
Bits/(Pixel*Frame) : 0.122
Stream size : 1.27 GiB (87%)
Writing library : x264 core 84 r1416 fcf70c2
Encoding settings : cabac=1 / ref=12 / deblock=1:0:0 / analyse=0x3:0x113 / me=umh / subme=10 / psy=1 / psy_rd=1.0:1.0 / mixed_ref=1 / me_range=32 / chroma_me=1 / trellis=2 / 8x8dct=1 / cqm=0 / deadzone=21,11 / fast_pskip=0 / chroma_qp_offset=-4 / threads=4 / sliced_threads=0 / nr=0 / decimate=0 / mbaff=0 / constrained_intra=0 / bframes=7 / b_pyramid=1 / b_adapt=2 / b_bias=0 / direct=3 / wpredb=1 / wpredp=2 / keyint=250 / keyint_min=25 / scenecut=40 / intra_refresh=0 / rc_lookahead=40 / rc=2pass / mbtree=1 / bitrate=1835 / ratetol=1.0 / qcomp=0.60 / qpmin=10 / qpmax=51 / qpstep=4 / cplxblur=20.0 / qblur=0.5 / ip_ratio=1.40 / aq=1:1.00
Language : English
Audio
ID : 2
Format : AC-3
Format/Info : Audio Coding 3
Codec ID : A_AC3
Duration : 1h 41mn
Bit rate mode : Constant
Bit rate : 224 Kbps
Channel(s) : 2 channels
Channel positions : L R
Sampling rate : 48.0 KHz
Video delay : 31ms
Stream size : 162 MiB (11%)
-
Показать сообщения:    

Текущее время: Сегодня 02:39

Часовой пояс: GMT



Вы не можете начинать темы
Вы не можете отвечать на сообщения
Вы не можете редактировать свои сообщения
Вы не можете удалять свои сообщения
Вы не можете голосовать в опросах
Вы не можете прикреплять файлы к сообщениям
Вы не можете скачивать файлы