Важное объявление!
У Нас Все раздачи мультитрекерные, при нуле пиров в релизах, можете смело вставать на закачку!
 
Автор Сообщение

HUNTER

Стаж:
4 года 4 месяца
Сообщений:
56839

Репутация: 101

[+] [-]
Вне форума [Профиль] [ЛС]

- --Крайние меры / Отчаянные меры / Last Resort--
--Год выпуска: 2012-2013
Выпущено: США , ABC
Жанр: Боевик, триллер, драма, детектив
Продолжительность: 00:44:00
Сезон: 1
Серии: 1-13
Количество серий в сезоне: 13
Озвучка:Профессиональная многоголосая закадровая(LostFilm.tv)
Субтитры: Нет--Режиссер: Мартин Кэмпбелл, Кевин Хукс--В ролях: Андре Брауэр, Отем Ризер, Скотт Спидмэн, Дэйзи Беттс, Камиль де Паззис, Дэниэл Лиссинг, Сар Нгойя и другие...--Описание: Американская ядерная подлодка последнего поколения «Колорадо» по экстренному каналу связи получает приказ выпустить боевую ракету на пакистанскую столицу. Капитан Чаплин не готов к уничтожению 4 млн человек и требует подтверждения приказа со стороны высшего руководства страны. За неисполнение приказа военное руководство отстраняет капитана от управления субмариной и передает командование в руки старшего помощника Сэма Кенделла. Кенделл, в свою очередь, так же отказывается выполнить приказ. Военное руководство принимает решение ликвидировать «Колорадо» с соседней подлодки. Однако, заметив приближение ракеты, Чаплин выводит судно из зоны прямого поражения, и, в ответ на высылку двух истребителей-ликвидаторов, запускает крылатую ядерную боеголовку на Вашингтон…--Качество : WEB-DLRip-AVC 720p
Формат: MPEG-4
Видео кодек: H264
Видео: 3123Кбит/сек,1280х720(16.9),в 25.000кадр/сек,AVC(Baseline@L3.1)(1Ref Frames)
Аудио кодек: AAC
Аудио Russian Dolby Digital 5.1:448Кбит/сек,44.1КГц,6каналов,AAC,(Version4)(LC)----

Доп. информация:

Звуковая дорожка сделана путем наложения чистого голоса озвучивателей на центральный канал оригинальной дорожки. Качество идентично звуковой дорожке.
--

Список эпизодов сезона


01.Капитан / Captain
12.Огонь по своим / Blue on Blue
03.Восемь склянок / Eight Bells
04.Добровольцы поневоле / Voluntold
05.Неполный экипаж / Skeleton Crew
06 Ещё один денёк на флоте (Another Fine Navy Day)
07 На грани взрыва (Nuke It Out)
08 Увольнение за недостойное поведение (Big Chicken Dinner)
09 Вернуться к полуночи (Cinderella Liberty)
10 Открытое море (Blue Water)
11 Плевать на торпеды (Damn the Torpedoes)
12 Острие копья (The Pointy End of the Spear)
13 Столкновение с землей в управляемом полёте (Controlled Flight Into Terrain)
--

MediaInfo сезона

Общее
Полное имя : F:\Новая папка (3)\Крайние меры\Last_Resort_S01_rus[LostFilm.TV]_DD5.1_x264_Nikolai.Baranov_WEB-DLRip-AVC_(720p)\Last_Resort_2012_S01E01_rus[LostFilm.TV]_DD5.1_x264_Nikolai.Baranov_WEB-DLRip-AVC_(720p).mp4
Формат : MPEG-4
Профиль формата : Base Media
Идентификатор кодека : isom
Размер файла : 1,12 Гбайт
Продолжительность : 44 м.
Режим общего битрейта : Переменный
Общий поток : 3575 Кбит/сек
Дата кодирования : UTC 2012-11-03 21:07:55
Дата пометки : UTC 2012-11-03 21:07:55
Программа кодирования : Lavf51.12.1
Видео
Идентификатор : 1
Формат : AVC
Формат/Информация : Advanced Video Codec
Профиль формата : [url=mailto:Baseline@L3.1]Baseline@L3.1[/url]
Параметр CABAC формата : Нет
Параметр ReFrames формата : 1 кадр
Параметр GOP формата : M=1, N=12
Идентификатор кодека : avc1
Идентификатор кодека/Информация : Advanced Video Coding
Продолжительность : 44 м.
Вид битрейта : Переменный
Битрейт : 3123 Кбит/сек
Максимальный битрейт : 4500 Кбит/сек
Ширина : 1280 пикселей
Высота : 720 пикселей
Соотношение сторон : 16:9
Режим частоты кадров : Постоянный
Частота кадров : 25,000 кадров/сек
Частота кадров в оригинале : 24,000 кадра/сек
Цветовое пространство : YUV
Субдискретизация насыщенности : 4:2:0
Битовая глубина : 8 бит
Тип развёртки : Прогрессивная
Бит/(Пиксели*Кадры) : 0.136
Размер потока : 1001 Мбайт (87%)
Дата кодирования : UTC 2012-11-03 21:07:55
Дата пометки : UTC 2012-11-03 21:07:55
Аудио
Идентификатор : 2
Формат : AAC
Формат/Информация : Advanced Audio Codec
Профиль формата : LC
Идентификатор кодека : 40
Продолжительность : 44 м.
Вид битрейта : Переменный
Битрейт : 448 Кбит/сек
Каналы : 6 каналов
Расположение каналов : Front: L C R, Side: L R, LFE
Частота : 44,1 КГц
Метод сжатия : С потерями
Размер потока : 144 Мбайт (13%)
Дата кодирования : UTC 2012-11-03 21:07:55
Дата пометки : UTC 2012-11-03 21:07:55
---- ---

Как закачать отдельный файл

1. Открыть торрент
2. Снять галки с тех файлов торрента, которые мы не хотим закачивать. Оставляем только на нужных нам файлах (файле).
3. Нажать О.К.
В клиенте utorrent
Инструкция
1) Открыть торрент

2) Снять галки с тех файлов торрента, которые мы не хотим закачивать:
* либо вручную, снимая с каждого файла галку( скрин №1)
* либо, нажав кнопку "Снять метки (Select None)", сняв сразу со всех файлов(скрин №2)
№1

№2

Оставляем только на нужных нам файлах (файле).

3)Нажать О.К
--Внимание!!! 29.01. 2013. РАЗДАЧА ОБНОВЛЕНА.ОБНОВИТЕ ТОРЕНТ ФАЙЛ.ПРИЯТНОГО ПРОСМОТРА. --Релиз от: Nikolai.Baranov. --

_________________
Показать сообщения:    

Текущее время: Сегодня 22:30

Часовой пояс: GMT



Вы не можете начинать темы
Вы не можете отвечать на сообщения
Вы не можете редактировать свои сообщения
Вы не можете удалять свои сообщения
Вы не можете голосовать в опросах
Вы не можете прикреплять файлы к сообщениям
Вы не можете скачивать файлы