Важное объявление!
У Нас Все раздачи мультитрекерные, при нуле пиров в релизах, можете смело вставать на закачку!
 
Автор Сообщение

HUNTER

Стаж:
4 года 4 месяца
Сообщений:
56733

Репутация: 101

[+] [-]
Вне форума [Профиль] [ЛС]

Крайние меры
Last Resort
Сезон 1. Серии 1-10.

-Год производства: 2012
Страна: USA
Жанр: боевик, триллер, драма
Продолжительность: ~ 00:44:00
Перевод: Профессиональный (многоголосый, закадровый) LostFilm
Субтитры: Отсутствуют-Режиссер: Мартин Кэмпбелл, Кевин Хукс
В ролях: Андре Брауэр, Отем Ризер, Скотт Спидмэн, Дэйзи Беттс, Камиль де Паззис, Дэниэл Лиссинг, Сар Нгойя.-Описание: На глубине 500 футов под поверхностью океана, американская атомная подводная лодка «Колорадо» получает приказ по радиоканалу, предназначенному для использования только в том случае, если их родина находится под угрозой уничтожения. Им приказывают нанести ядерный удар по Пакистану.
Капитан Маркус Чаплин требует подтверждения приказа специально, чтобы Белый Дом отстранил его от должностных обязанностей. Старший помощник командира Сэм Кендал неожиданно становится ответственным за субмарину и сталкивается с тем, что ему нужно принять непростое решение. Когда он отказывается стрелять без подтверждения приказа, подлодку атакуют, и она получает пробоину. Субмарина и её экипаж оказываются на дне океана, признанные врагами своей страны. И в этот момент, когда все пути назад закрыты, Чаплин и Кендал решают выбраться на остров. Здесь они найдут убежище и шанс на новую жизнь, даже когда они попытаются очистить свои имена и вернуться домой.-Качество видео: 720p WEB-DLRip
Формат видео: mkv
Видео кодек: AVC
Аудио кодек: AC3
Видео: 1280x720 (16:9), 23.976 fps, ~4000 kbps, ~0.183 bit/pixel
Аудио#1: 44 kHz, 2 ch, ~384 kbps |LostFilm|
Аудио#2: 48 kHz, 2 ch, ~384 kbps |Original|

Список серий

1.Капитан (Captain)
2.Огонь по своим (Blue on Blue)
3.Восемь склянок (Eight Bells)
4.Добровольцы поневоле (Voluntold)
5.Неполный экипаж (Skeleton Crew)
6.Ещё один денёк на флоте (Another Fine Navy Day)
7.На грани взрыва (Nuke It Out)

Скриншоты




MediaInfo

Код: copyText_writeLink('this.parentNode.parentNode.nextSibling.nextSibling'); General
Format : Matroska
Format version : Version 2
File size : 1.51 GiB
Duration : 44mn 48s
Overall bit rate : 4 810 Kbps
Encoded date : UTC 2012-10-12 17:16:31
Writing application : mkvmerge v4.2.0 ('No Talking') сборка от Jul 28 2010 18:38:23
Writing library : libebml v1.0.0 + libmatroska v1.0.0
Video #1
ID : 1
Format : AVC
Format/Info : Advanced Video Codec
Format profile : [url=mailto:High@L3.1]High@L3.1[/url]
Format settings, CABAC : Yes
Format settings, ReFrames : 4 frames
Codec ID : V_MPEG4/ISO/AVC
Duration : 44mn 48s
Bit rate : 4 041 Kbps
Width : 1 280 pixels
Height : 720 pixels
Display aspect ratio : 16:9
Frame rate : 23.976 fps
Color space : YUV
Chroma subsampling : 4:2:0
Bit depth : 8 bits
Scan type : Progressive
Bits/(Pixel*Frame) : 0.183
Stream size : 1.24 GiB (82%)
Writing library : x264 core 112 r1834 a51816a
Encoding settings : cabac=1 / ref=1 / deblock=1:0:0 / analyse=0x3:0x113 / me=hex / subme=7 / psy=1 / psy_rd=1.00:0.00 / mixed_ref=0 / me_range=16 / chroma_me=1 / trellis=1 / 8x8dct=1 / cqm=0 / deadzone=21,11 / fast_pskip=1 / chroma_qp_offset=-2 / threads=6 / sliced_threads=0 / nr=0 / decimate=1 / interlaced=0 / constrained_intra=0 / bframes=3 / b_pyramid=2 / b_adapt=1 / b_bias=0 / direct=1 / weightb=1 / open_gop=0 / weightp=2 / keyint=250 / keyint_min=25 / scenecut=40 / intra_refresh=0 / rc_lookahead=40 / rc=2pass / mbtree=1 / bitrate=4041 / ratetol=1.0 / qcomp=0.60 / qpmin=0 / qpmax=51 / qpstep=4 / cplxblur=20.0 / qblur=0.5 / ip_ratio=1.40 / aq=1:1.00
Default : Yes
Forced : No
Audio #2
ID : 2
Format : AC-3
Format/Info : Audio Coding 3
Mode extension : CM (complete main)
Format settings, Endianness : Big
Codec ID : A_AC3
Duration : 44mn 48s
Bit rate mode : Constant
Bit rate : 384 Kbps
Channel(s) : 2 channels
Channel positions : Front: L R
Sampling rate : 44.1 KHz
Bit depth : 16 bits
Compression mode : Lossy
Stream size : 123 MiB (8%)
Default : Yes
Forced : No
Audio #3
ID : 3
Format : AC-3
Format/Info : Audio Coding 3
Mode extension : CM (complete main)
Format settings, Endianness : Big
Codec ID : A_AC3
Duration : 44mn 48s
Bit rate mode : Constant
Bit rate : 384 Kbps
Channel(s) : 2 channels
Channel positions : Front: L R
Sampling rate : 48.0 KHz
Bit depth : 16 bits
Compression mode : Lossy
Stream size : 123 MiB (8%)
Default : No
Forced : No

_________________
Показать сообщения:    

Текущее время: Сегодня 22:24

Часовой пояс: GMT



Вы не можете начинать темы
Вы не можете отвечать на сообщения
Вы не можете редактировать свои сообщения
Вы не можете удалять свои сообщения
Вы не можете голосовать в опросах
Вы не можете прикреплять файлы к сообщениям
Вы не можете скачивать файлы