Важное объявление!
У Нас Все раздачи мультитрекерные, при нуле пиров в релизах, можете смело вставать на закачку!
 
Автор Сообщение

HUNTER

Стаж:
4 года 4 месяца
Сообщений:
56722

Репутация: 101

[+] [-]
Вне форума [Профиль] [ЛС]

Краденый камень / The Hot Rock
Страна: США
Студия: Landers-Roberts Productions
Жанр: боевик, комедия, криминал
Год выпуска: 1972
Продолжительность: 01:40:51
Перевод 1: Профессиональный (многоголосый, закадровый) MVO #1
Перевод 2: Профессиональный (многоголосый, закадровый) MVO #2
Перевод 3: Авторский (одноголосый закадровый) Иванов
Cубтитры: русские, английские SRT
Оригинальная дорожка: Английский
Режиссер: Питер Йейтс / Peter Yates
В ролях: Роберт Редфорд, Джордж Сигал, Рон Лейбман, Пол Сэнд, Моусес Ганн, Уильям Редфилд, Шарлотта Рэй, Грэхэм Джарвис, Гарри Беллэвер
Описание: Джорджа Сигала нанимают, чтобы они украли из музея громадный бриллиант, священную реликвию древнего африканского племени. Само по себе ограбление сопряжено с приключениями, смешными до колик в животе, но потом случается совершенно неожиданный поворот — неудачливые грабители пытаются вернуть потерянный ими камень…

Качество видео: HDTVRip 1080p
Формат видео: MKV
Видео кодек: H264
Аудио кодек: AC3
Видео: 1912x808 (2,35:1) 23,976 fps, ~4112 kbps avg, 0.111 bit/pixel
Аудио 1: 48 kHz, AC3 Dolby Digital, 2/0 (L,R) ch, ~192 kbps MVO 1
Аудио 2: 48 kHz, AC3 Dolby Digital, 2/0 (L,R) ch, ~192 kbps MVO 2
Аудио 3: 48 kHz, AC3 Dolby Digital, 2/0 (L,R) ch, ~192 kbps Иванов
Аудио 4: 48 kHz, AC3 Dolby Digital, 3/2 (L,C,R,l,r) + LFE ch, ~384 kbps Оригинал

Доп.инфо

за многоголоски спасибо cvc098 и pretenders за иванова budulai-8

MediaInfo

Полное имя : Краденый камень 1972.mkv
Формат : Matroska
Версия формата : Version 4 / Version 2
Размер файла : 3,65 Гбайт
Продолжительность : 1 ч. 40 м.
Режим общего битрейта : Переменный
Общий поток : 5175 Кбит/сек
Дата кодирования : UTC 2014-10-21 19:06:06
Программа кодирования : mkvmerge v7.1.0 ('Good Love') 64bit built on Jul 27 2014 13:06:55
Библиотека кодирования : libebml v1.3.0 + libmatroska v1.4.1
DURATION : 01:39:54.494000000
NUMBER_OF_FRAMES : 984
NUMBER_OF_BYTES : 38301
_STATISTICS_WRITING_APP : mkvmerge v7.1.0 ('Good Love') 64bit built on Jul 27 2014 13:06:55
_STATISTICS_WRITING_DATE_UTC : 2014-10-21 19:06:06
_STATISTICS_TAGS : BPS DURATION NUMBER_OF_FRAMES NUMBER_OF_BYTES
Видео
Идентификатор : 1
Формат : AVC
Формат/Информация : Advanced Video Codec
Профиль формата : High@L4.1
Параметр CABAC формата : Да
Параметр ReFrames формата : 4 кадра
Идентификатор кодека : V_MPEG4/ISO/AVC
Продолжительность : 1 ч. 40 м.
Вид битрейта : Переменный
Битрейт : 4112 Кбит/сек
Максимальный битрейт : 50,0 Мбит/сек
Ширина : 1912 пикселей
Высота : 808 пикселей
Соотношение сторон : 2,35:1
Режим частоты кадров : Постоянный
Частота кадров : 23,976 кадра/сек
Цветовое пространство : YUV
Субдискретизация насыщенности : 4:2:0
Битовая глубина : 8 бит
Тип развёртки : Прогрессивная
Бит/(Пиксели*Кадры) : 0.111
Размер потока : 2,90 Гбайт (79%)
Библиотека кодирования : x264 core 129 r2230 1cffe9f
Настройки программы : cabac=1 / ref=5 / deblock=1:-1:-1 / analyse=0x3:0x133 / me=umh / subme=9 / psy=1 / psy_rd=1.00:0.15 / mixed_ref=1 / me_range=16 / chroma_me=1 / trellis=2 / 8x8dct=1 / cqm=0 / deadzone=21,11 / fast_pskip=1 / chroma_qp_offset=-3 / threads=12 / lookahead_threads=2 / sliced_threads=0 / nr=0 / decimate=1 / interlaced=0 / bluray_compat=0 / constrained_intra=0 / bframes=8 / b_pyramid=1 / b_adapt=2 / b_bias=0 / direct=3 / weightb=1 / open_gop=0 / weightp=2 / keyint=120 / keyint_min=12 / scenecut=40 / intra_refresh=0 / rc_lookahead=60 / rc=crf / mbtree=1 / crf=20.0 / qcomp=0.75 / qpmin=0 / qpmax=69 / qpstep=8 / vbv_maxrate=50000 / vbv_bufsize=32000 / crf_max=0.0 / nal_hrd=vbr / ip_ratio=1.40 / aq=1:1.00
Язык : English
Default : Да
Forced : Нет
Основные цвета : BT.709
Характеристики трансфера : BT.709
Коэффициенты матрицы : BT.709
Аудио #1
Идентификатор : 2
Формат : AC-3
Формат/Информация : Audio Coding 3
Расширение режима : CM (complete main)
Параметр Endianness формата : Big
Идентификатор кодека : A_AC3
Продолжительность : 1 ч. 40 м.
Вид битрейта : Постоянный
Битрейт : 192 Кбит/сек
Каналы : 2 канала
Расположение каналов : Front: L R
Частота : 48,0 КГц
Битовая глубина : 16 бит
Метод сжатия : С потерями
Размер потока : 138 Мбайт (4%)
Заголовок : MVO 1
Язык : Russian
Default : Да
Forced : Нет
Аудио #2
Идентификатор : 3
Формат : AC-3
Формат/Информация : Audio Coding 3
Расширение режима : CM (complete main)
Параметр Endianness формата : Big
Идентификатор кодека : A_AC3
Продолжительность : 1 ч. 40 м.
Вид битрейта : Постоянный
Битрейт : 192 Кбит/сек
Каналы : 2 канала
Расположение каналов : Front: L R
Частота : 48,0 КГц
Битовая глубина : 16 бит
Метод сжатия : С потерями
Размер потока : 138 Мбайт (4%)
Заголовок : MVO 2
Язык : Russian
Default : Нет
Forced : Нет
Аудио #3
Идентификатор : 4
Формат : AC-3
Формат/Информация : Audio Coding 3
Расширение режима : CM (complete main)
Параметр Endianness формата : Big
Идентификатор кодека : A_AC3
Продолжительность : 1 ч. 40 м.
Вид битрейта : Постоянный
Битрейт : 192 Кбит/сек
Каналы : 2 канала
Расположение каналов : Front: L R
Частота : 48,0 КГц
Битовая глубина : 16 бит
Метод сжатия : С потерями
Размер потока : 138 Мбайт (4%)
Заголовок : AVO
Язык : Russian
Default : Нет
Forced : Нет
Аудио #4
Идентификатор : 5
Формат : AC-3
Формат/Информация : Audio Coding 3
Расширение режима : CM (complete main)
Параметр Endianness формата : Big
Идентификатор кодека : A_AC3
Продолжительность : 1 ч. 40 м.
Вид битрейта : Постоянный
Битрейт : 384 Кбит/сек
Каналы : 6 каналов
Расположение каналов : Front: L C R, Side: L R, LFE
Частота : 48,0 КГц
Битовая глубина : 16 бит
Метод сжатия : С потерями
Размер потока : 277 Мбайт (7%)
Заголовок : Org
Язык : English
Default : Нет
Forced : Нет
Текст #1
Идентификатор : 6
Формат : UTF-8
Идентификатор кодека : S_TEXT/UTF8
Идентификатор кодека/Информация : UTF-8 Plain Text
Язык : Russian
Default : Нет
Forced : Нет
Текст #2
Идентификатор : 7
Формат : UTF-8
Идентификатор кодека : S_TEXT/UTF8
Идентификатор кодека/Информация : UTF-8 Plain Text
Язык : English
Default : Нет
Forced : Нет
Меню
00:00:00.000 : en:Main Titles
00:02:32.194 : en:The Career Crook
00:04:33.857 : en:Kelp
00:07:26.780 : en:The Sahara Stone
00:08:43.356 : en:The Money Man
00:12:59.946 : en:Dortmunder's Decision
00:14:59.357 : en:Family
00:16:39.790 : en:Murch and Ma
00:18:11.257 : en:Meeting of the Minds
00:21:21.864 : en:Preparations
00:24:16.288 : en:The Heist
00:34:36.449 : en:Kelp Under Glass
00:36:21.179 : en:Greenberg's Big Gulp
00:37:42.302 : en:Look on the Bright Side
00:39:41.212 : en:Getting Greenberg Out
00:44:31.836 : en:The Break-In
00:52:27.186 : en:The Breakout
00:57:15.432 : en:Where's the Diamond?
01:00:28.291 : en:Copter Crooks
01:07:27.627 : en:Assualt on Ninth Street
01:11:58.147 : en:Dad's Little Secret
01:18:53.312 : en:Stymied by a Signature
01:22:51.008 : en:The Man With the Plan
01:25:26.997 : en:Afghanistan Banana Stand
01:28:15.874 : en:Double-Cross
01:30:21.708 : en:The Hypnotic Heist
01:36:45.883 : en:The Getaway
01:39:58.034 : en:End Titles

Скриншоты


_________________
Показать сообщения:    

Текущее время: Сегодня 17:20

Часовой пояс: GMT



Вы не можете начинать темы
Вы не можете отвечать на сообщения
Вы не можете редактировать свои сообщения
Вы не можете удалять свои сообщения
Вы не можете голосовать в опросах
Вы не можете прикреплять файлы к сообщениям
Вы не можете скачивать файлы