Важное объявление!
У Нас Все раздачи мультитрекерные, при нуле пиров в релизах, можете смело вставать на закачку!
 
Автор Сообщение

HUNTER

Стаж:
4 года 4 месяца
Сообщений:
56822

Репутация: 101

[+] [-]
Вне форума [Профиль] [ЛС]

Крабат – ученик колдуна / Carodejuv ucen / The Sorcerer's Apprentice
Страна: ЧССР, ФРГ
Жанр: мультфильм, фэнтези, драма
Продолжительность: 01:12:59
Год выпуска: 1977
Перевод: Любительский (многоголосый закадровый) - XvidClub Studio
Перевод: Любительский (двухголосый закадровый) - Fenix
Русские субтитры: есть

Режиссёр: Карел Земан / Karel Zeman
Описание: Юный сирота Крабат скитается по Лаузицу. На очередную войну уходят солдаты, а Крабат тем временем спасается от охотников курфюрста Саксонского. Наконец ворон заманивает его на мельницу у Черной реки, где Крабат становится учеником колдуна. Слишком поздно Крабат понимает, что вместе с другими подмастерьями оказался в ловушке на заколдованной мельнице. Один за другим в сражении с Мастером черной магии они погибают. И только Крабат может спасти свою любимую и друзей от проклятия колдуна...
По повести немецкого писателя Отфрида Пройслера "Крабат, или Легенды старой мельницы".

Качество: DVDRip
Формат: AVI
Видео: 656x480 (1.37:1), 25 fps, XviD build 73 ~2225 kbps avg, 0.28 bit/pixel
Аудио: 48 kHz, AC3 Dolby Digital, 2/0 (L,R) ch, ~192 kbps - многоголосый
Аудио: 48 kHz, AC3 Dolby Digital, 2/0 (L,R) ch, ~192 kbps - двухголосый
Аудио: 48 kHz, AC3 Dolby Digital, 2/0 (L,R) ch, ~224 kbps - оригинал
Субтитры: русские, английские

Подробные технические данные

ОбщееПолное имя : H:\Carodejuv.ucen.1977.dvdrp_[1.46]_[teko]\Carodejuv.ucen.1977.dvdrp_[1.46].aviФормат : AVIФормат/Информация : Audio Video InterleaveРазмер файла : 1,46 ГбайтПродолжительность : 1 ч. 12 м.Общий поток : 2855 Кбит/секПрограмма кодирования : VirtualDubMod 1.5.10.3 | www.virtualdub-fr.org || (build 2550/release)Библиотека кодирования : VirtualDubMod build 2550/release
ВидеоИдентификатор : 0Формат : MPEG-4 VisualПрофиль формата : Advanced Simple@L5Параметр BVOP формата : 1Параметр QPel формата : НетПараметр GMC формата : Без точки переходаПараметр матрицы формата : ВыборочнаяИдентификатор кодека : XVIDИдентификатор кодека/Подсказка : XviDПродолжительность : 1 ч. 12 м.Битрейт : 2227 Кбит/секШирина : 656 пикселейВысота : 480 пикселейСоотношение сторон : 4:3Частота кадров : 25,000 кадров/секЦветовое пространство : YUVСубдискретизация насыщенности : 4:2:0Битовая глубина : 8 битТип развёртки : ПрогрессивнаяМетод сжатия : С потерямиБит/(Пиксели*Кадры) : 0.283Размер потока : 1,14 Гбайт (78%)Библиотека кодирования : XviD 73
Аудио #1Идентификатор : 1Формат : AC-3Формат/Информация : Audio Coding 3Расширение режима : CM (complete main)Параметр Endianness формата : BigИдентификатор кодека : 2000Продолжительность : 1 ч. 12 м.Вид битрейта : ПостоянныйБитрейт : 192 Кбит/секКаналы : 2 каналаРасположение каналов : Front: L RЧастота : 48,0 КГцБитовая глубина : 16 битМетод сжатия : С потерямиРазмер потока : 100 Мбайт (7%)Выравнивание : Разделение по промежуткамПродолжительность промежутка : 40 мс. (1,00 видеокадр)Время предзагрузки промежутка : 500 мс.
Аудио #2Идентификатор : 2Формат : AC-3Формат/Информация : Audio Coding 3Расширение режима : CM (complete main)Параметр Endianness формата : BigИдентификатор кодека : 2000Продолжительность : 1 ч. 12 м.Вид битрейта : ПостоянныйБитрейт : 192 Кбит/секКаналы : 2 каналаРасположение каналов : Front: L RЧастота : 48,0 КГцБитовая глубина : 16 битМетод сжатия : С потерямиРазмер потока : 100 Мбайт (7%)Выравнивание : Разделение по промежуткамПродолжительность промежутка : 40 мс. (1,00 видеокадр)Время предзагрузки промежутка : 500 мс.
Аудио #3Идентификатор : 3Формат : AC-3Формат/Информация : Audio Coding 3Расширение режима : CM (complete main)Параметр Endianness формата : BigИдентификатор кодека : 2000Продолжительность : 1 ч. 12 м.Вид битрейта : ПостоянныйБитрейт : 224 Кбит/секКаналы : 2 каналаРасположение каналов : Front: L RЧастота : 48,0 КГцБитовая глубина : 16 битМетод сжатия : С потерямиРазмер потока : 117 Мбайт (8%)Выравнивание : Разделение по промежуткамПродолжительность промежутка : 40 мс. (1,00 видеокадр)Время предзагрузки промежутка : 500 мс.
Релиз группы:
--

_________________
Показать сообщения:    

Текущее время: Сегодня 23:42

Часовой пояс: GMT



Вы не можете начинать темы
Вы не можете отвечать на сообщения
Вы не можете редактировать свои сообщения
Вы не можете удалять свои сообщения
Вы не можете голосовать в опросах
Вы не можете прикреплять файлы к сообщениям
Вы не можете скачивать файлы