Важное объявление!
У Нас Все раздачи мультитрекерные, при нуле пиров в релизах, можете смело вставать на закачку!
 
Автор Сообщение

HUNTER

Стаж:
4 года 4 месяца
Сообщений:
56829

Репутация: 101

[+] [-]
Вне форума [Профиль] [ЛС]

Кот Гром и заколдованный дом / The House of Magic
Страна: США, Бельгия
Жанр: Мультфильм, приключения
Продолжительность: 01:25:08
Год выпуска: 2013
Перевод: Профессиональный (дублированный)
Роли дублировали: Александр Якин, Людмила Артемьева, Михаил Башкатов, Роман Юнусов, Федор Добронравов
Режиссёр: Джереми Дегрусон, Бен Стассен / Jeremy Degruson, Ben Stassen
Описание: Любопытный рыжий кот попадает в дом старого фокусника и узнает секрет его трюков. Так начинается его знакомство с учеными зверями и живыми игрушками, а также невероятные приключения полные юмора и опасностей...
Доп. информация:
Семпл: http://multi-up.com/1048575
Качество: BDRip
Формат: AVI
Видео: XviD, 656x368, 23.976fps, 1088kbps
Аудио: MPEG Layer 3, 2ch, 48000Hz, 128kbps

Подробные технические данные

GeneralComplete name : Kot.Grom.2013.D.BDRip.700.MediaClub.CurHaJI.aviFormat : AVIFormat/Info : Audio Video InterleaveFile size : 746 MiBDuration : 1h 25mnOverall bit rate : 1 225 KbpsMovie name : Kot.Grom.2013.D.BDRip.700.MediaClub.CurHaJIWriting application : Lavf53.13.0Writing library : VirtualDub build 35491/release
VideoID : 0Format : MPEG-4 VisualFormat profile : Advanced Simple@L5Format settings, BVOP : 1Format settings, QPel : NoFormat settings, GMC : No warppointsFormat settings, Matrix : CustomCodec ID : XVIDCodec ID/Hint : XviDDuration : 1h 25mnBit rate : 1 088 KbpsWidth : 656 pixelsHeight : 368 pixelsDisplay aspect ratio : 16:9Frame rate : 23.976 fpsColor space : YUVChroma subsampling : 4:2:0Bit depth : 8 bitsScan type : ProgressiveCompression mode : LossyBits/(Pixel*Frame) : 0.188Stream size : 663 MiB (89%)Writing library : XviD 1.2.1 (UTC 2008-12-04)
AudioID : 1Format : MPEG AudioFormat version : Version 1Format profile : Layer 3Codec ID : 55Codec ID/Hint : MP3Duration : 1h 25mnBit rate mode : ConstantBit rate : 128 KbpsChannel(s) : 2 channelsSampling rate : 48.0 KHzCompression mode : LossyStream size : 77.9 MiB (10%)Alignment : Split accross interleavesInterleave, duration : 42 ms (1.00 video frame)Interleave, preload duration : 500 msWriting library : L3.99rEncoding settings : -m s -V 4 -q 2 -lowpass 17 -b 128

Скриншоты


_________________
Показать сообщения:    

Текущее время: Сегодня 17:24

Часовой пояс: GMT



Вы не можете начинать темы
Вы не можете отвечать на сообщения
Вы не можете редактировать свои сообщения
Вы не можете удалять свои сообщения
Вы не можете голосовать в опросах
Вы не можете прикреплять файлы к сообщениям
Вы не можете скачивать файлы