Важное объявление!
У Нас Все раздачи мультитрекерные, при нуле пиров в релизах, можете смело вставать на закачку!
 
Автор Сообщение

HUNTER

Стаж:
4 года 4 месяца
Сообщений:
56790

Репутация: 101

[+] [-]
Вне форума [Профиль] [ЛС]

Кот Гром и заколдованный дом
The House of Magic-Год выпуска: 2013
Страна: США, Бельгия
Жанр: мультфильм, семейный
Продолжительность: 01:25:28
Перевод: Профессиональный (полное дублирование) - Чистый звук
Cубтитры: нет
Режиссер: Джереми Дегрусон, Бен Стассен
В ролях: Синда Адамс, Эдвард Аснер, Эмили Блант, Грант Джордж, Юджин Леви, Дэнни Манн...-Описание: По-настоящему детский мультфильм. Спасаясь от проливного дождя, любопытный уличный кот попадает в таинственный особняк, принадлежащий старому фокуснику Лоренцо. В доме иллюзиониста живет немало зверей, и далеко не все они рады новому обитателю. Особенно подозрительно относятся к нему кролик Джек и мышка Минни. Но когда Лоренцо оказывается в больнице, а его племянник решает продать дядюшкино жилье, зверькам приходится объединиться. И в плане по спасению дома коту Грому предстоит сыграть очень важную роль. «Кот Гром и заколдованный дом» — самый высокобюджетный мультфильм в истории бельгийской анимации.- -Качество: BDRip
Формат: AVI
Видео: 720x400 (1.80:1), 24 fps, XviD build 65 ~1863 kbps avg, 0.27 bit/pixel
Аудио #1: Русский - 48 kHz, AC3 Dolby Digital, 3/2 (L,C,R,l,r) + LFE ch, ~384 kbps
Аудио #2: Французский - 48 kHz, AC3 Dolby Digital, 2/0 (L,R) ch, ~192 kbps

СкриншотыMediaInfo
GeneralComplete name : Kot.Grom.I.Zakoldovanniy.Dom.2013.D.BDRip_Olu6ka.aviFormat : AVIFormat/Info : Audio Video InterleaveFile size : 1.46 GiBDuration : 1h 25mnOverall bit rate : 2 454 KbpsWriting application : VirtualDubModRus 1.5.10.2 (build 2542/release)Writing library : VirtualDubMod build 2542/release
VideoID : 0Format : MPEG-4 VisualFormat profile : Advanced Simple@L5Format settings, BVOP : 1Format settings, QPel : NoFormat settings, GMC : No warppointsFormat settings, Matrix : CustomCodec ID : XVIDCodec ID/Hint : XviDDuration : 1h 25mnBit rate : 1 865 KbpsWidth : 720 pixelsHeight : 400 pixelsDisplay aspect ratio : 16:9Frame rate : 24.000 fpsColor space : YUVChroma subsampling : 4:2:0Bit depth : 8 bitsScan type : ProgressiveCompression mode : LossyBits/(Pixel*Frame) : 0.270Stream size : 1.11 GiB (76%)Writing library : XviD 65
Audio #1ID : 1Format : AC-3Format/Info : Audio Coding 3Mode extension : CM (complete main)Format settings, Endianness : BigCodec ID : 2000Duration : 1h 25mnBit rate mode : ConstantBit rate : 384 KbpsChannel count : 6 channelsChannel positions : Front: L C R, Side: L R, LFESampling rate : 48.0 KHzBit depth : 16 bitsCompression mode : LossyStream size : 234 MiB (16%)Alignment : Split accross interleavesInterleave, duration : 42 ms (1.00 video frame)Interleave, preload duration : 500 ms
Audio #2ID : 2Format : AC-3Format/Info : Audio Coding 3Mode extension : CM (complete main)Format settings, Endianness : BigCodec ID : 2000Duration : 1h 25mnBit rate mode : ConstantBit rate : 192 KbpsChannel count : 2 channelsChannel positions : Front: L RSampling rate : 48.0 KHzBit depth : 16 bitsCompression mode : LossyStream size : 117 MiB (8%)Alignment : Split accross interleavesInterleave, duration : 42 ms (1.00 video frame)Interleave, preload duration : 500 ms
Релиз от группы

_________________
Показать сообщения:    

Текущее время: Сегодня 15:10

Часовой пояс: GMT



Вы не можете начинать темы
Вы не можете отвечать на сообщения
Вы не можете редактировать свои сообщения
Вы не можете удалять свои сообщения
Вы не можете голосовать в опросах
Вы не можете прикреплять файлы к сообщениям
Вы не можете скачивать файлы