Важное объявление!
У Нас Все раздачи мультитрекерные, при нуле пиров в релизах, можете смело вставать на закачку!
 
Автор Сообщение

димитри37

Стаж:
3 года 8 месяцев
Сообщений:
1237

Репутация: 127

[+] [-]
Вне форума [Профиль] [ЛС]

Кот в сапогах / Puss in Boots
Год выпуска: 2011
Страна: США
Жанр: мультфильм, комедия, приключения, семейный
Продолжительность: 01:30:15
Перевод:
профессиональный (полное дублирование) | Лицензия, R5
авторский (одноголосый закадровый) | Ю. Сербин
Оригинальная аудиодорожка: английский
Русские субтитры: есть
Навигация по главам: есть-Режиссер: Крис Миллер / Chris Miller
В ролях: Антонио Бандерас (Puss in Boots, озвучка), Сальма Хайек (Kitty Softpaws, озвучка), Зак Галифианакис (Humpty Dumpty, озвучка), Билли Боб Торнтон (Jack, озвучка), Эми Седарис (Jill, озвучка), Констанс Мари (Imelda, озвучка), Гильермо дель Торо (Moustache Man / Comandate, озвучка), Рич Дитль (Bounty Hunter, озвучка), Райан Крего (Luis, озвучка), Том Вилер (Bartender / Hotel Owner / Mean Boy / Wagon Driver / Rodrigo, озвучка), Конрад Вернон (Raoul / Soldier, озвучка), Том МакГрат (Bar Thief, озвучка)-Описание: Мечи пересекутся и сердца будут разбиты в приключениях с одним из самых любимых персонажей из Шрэка — котом в сапогах. Это удалая поездка ранних лет кота в сапогах, когда он объединяется с умным Шалтай-Болтаем и сообразительной Кисой, чтобы украсть знаменитую Гусыню, несущую золотые яйца.- -Качество: BDRip-AVC
Формат: MKV
Видео кодек: H.264
Аудио кодек: AC3
Видео: H.264, 1200x512, 23.976 fps, ~ 3722kbps, Bits/(Pixel*Frame):0.252, VBR
Аудио 1: Русский: 48 kHz, AC3, 3/2 (L,C,R,l,r) + LFE ch, ~ 448.00 kbps | профессиональный (полное дублирование) Лицензия, R5
Аудио 2: Русский: 48 kHz, AC3, 3/2 (L,C,R,l,r) + LFE ch, ~ 448.00 kbps | авторский (одноголосый закадровый) Ю. Сербин
Аудио 3: Английский: 48 kHz, AC3, 3/2 (L,C,R,l,r) + LFE ch, ~ 448.00 kbps
Формат субтитров: softsub (SRT) | русские (надписи, R5), русские (полные, R5), русские (Voronine), украинские (надписи, R5), украинские (полные, R5), английские (2 вида: SDH и обычные), французские, испанские

Скриншоты

- -Rip vs Sourse -Rip vs Sourse

MediaInfo | x264

x264

x264 [info]: frame I:1155 Avg QP:13.82 size:119241
x264 [info]: frame P:31759 Avg QP:15.49 size: 40917
x264 [info]: frame B:96905 Avg QP:18.68 size: 11167
x264 [info]: consecutive B-frames: 3.6% 3.2% 14.0% 21.5% 22.0% 30.2% 3.2% 0.7% 1.6%
x264 [info]: mb I I16..4: 8.5% 66.7% 24.8%
x264 [info]: mb P I16..4: 2.4% 13.3% 2.3% P16..4: 36.8% 23.8% 15.2% 0.0% 0.0% skip: 6.3%
x264 [info]: mb B I16..4: 0.2% 1.5% 0.4% B16..8: 33.2% 11.0% 3.6% direct: 4.8% skip:45.2% L0:39.5% L1:43.3% BI:17.2%
x264 [info]: 8x8 transform intra:72.6% inter:51.7%
x264 [info]: direct mvs spatial:97.4% temporal:2.6%
x264 [info]: coded y,uvDC,uvAC intra: 80.6% 81.6% 63.8% inter: 22.2% 22.6% 14.2%
x264 [info]: i16 v,h,dc,p: 17% 19% 8% 56%
x264 [info]: i8 v,h,dc,ddl,ddr,vr,hd,vl,hu: 9% 13% 7% 9% 12% 11% 14% 11% 15%
x264 [info]: i4 v,h,dc,ddl,ddr,vr,hd,vl,hu: 7% 9% 6% 10% 17% 13% 15% 10% 13%
x264 [info]: i8c dc,h,v,p: 37% 27% 16% 20%
x264 [info]: Weighted P-Frames: Y:2.3% UV:1.5%
x264 [info]: ref P L0: 57.6% 7.5% 13.9% 6.7% 4.2% 3.2% 2.4% 1.5% 1.2% 1.0% 0.8% 0.2% 0.0%
x264 [info]: ref B L0: 76.8% 12.6% 4.7% 2.1% 1.4% 1.0% 0.7% 0.4% 0.3% 0.1%
x264 [info]: ref B L1: 90.4% 9.6%
x264 [info]: kb/s:3722.33
encoded 129819 frames, 3722.33 kb/s

MediaInfo

General
Unique ID : 241855466871608971426998843899116475296 (0xB5F3AB2876BC003B8C1EA42A1E2F53A0)
Complete name : I:\Puss.In.Boots.Dub.AVO.Eng.barm.mkv
Format : Matroska
Format version : Version 2
File size : 3.20 GiB
Duration : 1h 30mn
Overall bit rate : 5 069 Kbps
Movie name : Puss in Boots 2011
Encoded date : UTC 2012-03-13 02:08:00
Writing application : mkvmerge v5.3.0 ('I could have danced') built on Feb 9 2012 10:38:07
Writing library : libebml v1.2.3 + libmatroska v1.3.0
Attachment : Yes
Video
ID : 1
Format : AVC
Format/Info : Advanced Video Codec
Format profile : High@L4.1
Format settings, CABAC : Yes
Format settings, ReFrames : 11 frames
Codec ID : V_MPEG4/ISO/AVC
Duration : 1h 30mn
Bit rate : 3 722 Kbps
Width : 1 200 pixels
Height : 512 pixels
Display aspect ratio : 2.35:1
Frame rate : 23.976 fps
Color space : YUV
Chroma subsampling : 4:2:0
Bit depth : 8 bits
Scan type : Progressive
Bits/(Pixel*Frame) : 0.253
Stream size : 2.28 GiB (71%)
Title : Puss in Boots
Writing library : x264 core 120 r2164 da19765
Encoding settings : cabac=1 / ref=11 / deblock=1:-1:-1 / analyse=0x3:0x113 / me=umh / subme=10 / psy=1 / psy_rd=0.80:0.00 / mixed_ref=1 / me_range=32 /
chroma_me=1 / trellis=2 / 8x8dct=1 / cqm=0 / deadzone=21,11 / fast_pskip=0 / chroma_qp_offset=-2 / threads=6 / sliced_threads=0 / nr=0 / decimate=0 / interlaced=0 /
bluray_compat=0 / constrained_intra=0 / bframes=8 / b_pyramid=2 / b_adapt=2 / b_bias=0 / direct=3 / weightb=1 / open_gop=0 / weightp=2 / keyint=250 / keyint_min=23 /
scenecut=40 / intra_refresh=0 / rc_lookahead=60 / rc=2pass / mbtree=1 / bitrate=3722 / ratetol=1.0 / qcomp=0.70 / qpmin=0 / qpmax=69 / qpstep=4 / cplxblur=20.0 /
qblur=0.5 / vbv_maxrate=50000 / vbv_bufsize=62500 / nal_hrd=none / ip_ratio=1.20 / aq=2:0.70
Language : English
Default : Yes
Forced : No
Matrix coefficients : BT.709-5, BT.1361, IEC 61966-2-4 709, SMPTE RP177
Audio #1
ID : 2
Format : AC-3
Format/Info : Audio Coding 3
Mode extension : CM (complete main)
Codec ID : A_AC3
Duration : 1h 30mn
Bit rate mode : Constant
Bit rate : 448 Kbps
Channel(s) : 6 channels
Channel positions : Front: L C R, Side: L R, LFE
Sampling rate : 48.0 KHz
Bit depth : 16 bits
Compression mode : Lossy
Stream size : 289 MiB (9%)
Title : Dubljaz, R5, 48 kHz, AC3, 3/2 (L,C,R,l,r) + LFE ch, ~ 448.00 kbps
Language : Russian
Default : Yes
Forced : No
Audio #2
ID : 3
Format : AC-3
Format/Info : Audio Coding 3
Mode extension : CM (complete main)
Codec ID : A_AC3
Duration : 1h 30mn
Bit rate mode : Constant
Bit rate : 448 Kbps
Channel(s) : 6 channels
Channel positions : Front: L C R, Side: L R, LFE
Sampling rate : 48.0 KHz
Bit depth : 16 bits
Compression mode : Lossy
Stream size : 289 MiB (9%)
Title : Serbin (AVO), 48 kHz, AC3, 3/2 (L,C,R,l,r) + LFE ch, ~ 448.00 kbps
Language : Russian
Default : No
Forced : No
Audio #3
ID : 4
Format : AC-3
Format/Info : Audio Coding 3
Mode extension : CM (complete main)
Codec ID : A_AC3
Duration : 1h 30mn
Bit rate mode : Constant
Bit rate : 448 Kbps
Channel(s) : 6 channels
Channel positions : Front: L C R, Side: L R, LFE
Sampling rate : 48.0 KHz
Bit depth : 16 bits
Compression mode : Lossy
Stream size : 289 MiB (9%)
Title : Original, 48 kHz, AC3, 3/2 (L,C,R,l,r) + LFE ch, ~ 448.00 kbps
Language : English
Default : No
Forced : No
Text #1
ID : 5
Format : UTF-8
Codec ID : S_TEXT/UTF8
Codec ID/Info : UTF-8 Plain Text
Title : Forced
Language : Russian
Default : Yes
Forced : No
Text #2
ID : 6
Format : UTF-8
Codec ID : S_TEXT/UTF8
Codec ID/Info : UTF-8 Plain Text
Title : Full, R5
Language : Russian
Default : No
Forced : No
Text #3
ID : 7
Format : UTF-8
Codec ID : S_TEXT/UTF8
Codec ID/Info : UTF-8 Plain Text
Title : Voronine
Language : Russian
Default : No
Forced : No
Text #4
ID : 8
Format : UTF-8
Codec ID : S_TEXT/UTF8
Codec ID/Info : UTF-8 Plain Text
Title : Forced
Language : Ukrainian
Default : No
Forced : No
Text #5
ID : 9
Format : UTF-8
Codec ID : S_TEXT/UTF8
Codec ID/Info : UTF-8 Plain Text
Title : Full, R5
Language : Ukrainian
Default : No
Forced : No
Text #6
ID : 10
Format : UTF-8
Codec ID : S_TEXT/UTF8
Codec ID/Info : UTF-8 Plain Text
Title : SDH
Language : English
Default : No
Forced : No
Text #7
ID : 11
Format : UTF-8
Codec ID : S_TEXT/UTF8
Codec ID/Info : UTF-8 Plain Text
Language : English
Default : No
Forced : No
Text #8
ID : 12
Format : UTF-8
Codec ID : S_TEXT/UTF8
Codec ID/Info : UTF-8 Plain Text
Language : French
Default : No
Forced : No
Text #9
ID : 13
Format : UTF-8
Codec ID : S_TEXT/UTF8
Codec ID/Info : UTF-8 Plain Text
Language : Spanish
Default : No
Forced : No
Menu
00:00:00.000 : en:Chapter 1
00:03:25.246 : en:Chapter 2
00:07:20.148 : en:Chapter 3
00:11:46.831 : en:Chapter 4
00:15:53.369 : en:Chapter 5
00:19:23.537 : en:Chapter 6
00:25:58.348 : en:Chapter 7
00:29:22.427 : en:Chapter 8
00:34:06.461 : en:Chapter 9
00:39:17.438 : en:Chapter 10
00:44:12.107 : en:Chapter 11
00:49:34.054 : en:Chapter 12
00:54:05.951 : en:Chapter 13
00:57:38.204 : en:Chapter 14
01:03:05.990 : en:Chapter 15
01:08:14.715 : en:Chapter 16
01:16:51.773 : en:Chapter 17
01:19:42.194 : en:Chapter 18

FAQ по просмотру MKV/h.264/AAC

Показать сообщения:    

Текущее время: Сегодня 10:31

Часовой пояс: GMT



Вы не можете начинать темы
Вы не можете отвечать на сообщения
Вы не можете редактировать свои сообщения
Вы не можете удалять свои сообщения
Вы не можете голосовать в опросах
Вы не можете прикреплять файлы к сообщениям
Вы не можете скачивать файлы