Важное объявление!
У Нас Все раздачи мультитрекерные, при нуле пиров в релизах, можете смело вставать на закачку!
 
Автор Сообщение

HUNTER

Стаж:
4 года 4 месяца
Сообщений:
56822

Репутация: 101

[+] [-]
Вне форума [Профиль] [ЛС]

Костяной томагавк / Bone Tomahawk
Страна: США
Студия: Caliber Media Company
Жанр: ужасы, триллер, драма, приключения, вестерн
Год выпуска: 2015
Продолжительность: 02:12:03
Перевод: Профессиональный (дублированный) iTunes
Cубтитры: английские
Оригинальная аудиодорожка: английский
Режиссер: С. Крэйг Залер / S. Craig Zahler
В ролях: Патрик Уилсон, Курт Рассел, Лили Симмонс, Шон Янг, Занн МаКларнон, Мэттью Фокс, Дэвид Аркетт, Сид Хэйг, Ричард Дженкинс ,Кэтрин Моррис
Описание: Четверо мужчин отправляются в отдаленные земли Дикого Запада, чтобы спасти группу пленных из пещер каннибалов.

Тип релиза: BDRip 1080p
Контейнер: MKV
Видео: MPEG-4 AVC, 10.2 Mбит/с, 1920x804, 23,976 fps
Аудио: Rus, AC3, 384 kb/s (6 ch), 48 kHz
Аудио 2: Eng, DTS, 1510 kb/s (6 ch), 48 kHz
Формат субтитров: softsub (SRT)

MediaInfo

Format : Matroska
Format version : Version 4 / Version 2
File size : 11.3 GiB
Duration : 2h 12mn
Overall bit rate : 12.3 Mbps
Movie name : Костяной томагавк. (Tonik)
Encoded date : UTC 2015-12-31 20:25:30
Writing application : mkvmerge v7.1.0 ('Good Love') 64bit built on Jul 27 2014 13:06:55
Writing library : libebml v1.3.0 + libmatroska v1.4.1
_STATISTICS_WRITING_APP : mkvmerge v7.1.0 ('Good Love') 64bit built on Jul 27 2014 13:06:55
_STATISTICS_WRITING_DATE_UTC : 2015-12-31 20:25:30
_STATISTICS_TAGS : BPS DURATION NUMBER_OF_FRAMES NUMBER_OF_BYTES
DURATION : 02:12:03.916000000
NUMBER_OF_FRAMES : 189984
NUMBER_OF_BYTES : 10302640190
Video
ID : 1
Format : AVC
Format/Info : Advanced Video Codec
Format profile : High@L4.1
Format settings, CABAC : Yes
Format settings, ReFrames : 5 frames
Codec ID : V_MPEG4/ISO/AVC
Duration : 2h 12mn
Bit rate : 10.2 Mbps
Width : 1 920 pixels
Height : 804 pixels
Display aspect ratio : 2.40:1
Frame rate mode : Constant
Frame rate : 23.976 fps
Color space : YUV
Chroma subsampling : 4:2:0
Bit depth : 8 bits
Scan type : Progressive
Bits/(Pixel*Frame) : 0.275
Stream size : 9.37 GiB (83%)
Writing library : x264 core 148 r2597 e86f3a1
Encoding settings : cabac=1 / ref=5 / deblock=1:-3:-3 / analyse=0x3:0x113 / me=umh / subme=10 / psy=1 / psy_rd=1.00:0.05 / mixed_ref=1 / me_range=48 / chroma_me=1 / trellis=2 / 8x8dct=1 / cqm=0 / deadzone=21,11 / fast_pskip=0 / chroma_qp_offset=-2 / threads=12 / lookahead_threads=2 / sliced_threads=0 / nr=0 / decimate=1 / interlaced=0 / bluray_compat=0 / constrained_intra=0 / bframes=8 / b_pyramid=2 / b_adapt=2 / b_bias=0 / direct=3 / weightb=1 / open_gop=0 / weightp=2 / keyint=250 / keyint_min=23 / scenecut=40 / intra_refresh=0 / rc_lookahead=40 / rc=crf / mbtree=0 / crf=17.0 / qcomp=0.60 / qpmin=0 / qpmax=69 / qpstep=4 / vbv_maxrate=50000 / vbv_bufsize=45000 / crf_max=0.0 / nal_hrd=none / filler=0 / ip_ratio=1.40 / pb_ratio=1.30 / aq=3:1.00
Language : English
Default : Yes
Forced : No
Color range : Limited
Matrix coefficients : BT.709
Audio #1
ID : 2
Format : AC-3
Format/Info : Audio Coding 3
Mode extension : CM (complete main)
Format settings, Endianness : Big
Codec ID : A_AC3
Duration : 2h 12mn
Bit rate mode : Constant
Bit rate : 384 Kbps
Channel(s) : 6 channels
Channel positions : Front: L C R, Side: L R, LFE
Sampling rate : 48.0 KHz
Bit depth : 16 bits
Compression mode : Lossy
Stream size : 363 MiB (3%)
Title : iTunes
Language : Russian
Default : Yes
Forced : No
Audio #2
ID : 3
Format : DTS
Format/Info : Digital Theater Systems
Mode : 16
Format settings, Endianness : Big
Codec ID : A_DTS
Duration : 2h 12mn
Bit rate mode : Constant
Bit rate : 1 509 Kbps
Channel(s) : 6 channels
Channel positions : Front: L C R, Side: L R, LFE
Sampling rate : 48.0 KHz
Bit depth : 24 bits
Compression mode : Lossy
Stream size : 1.39 GiB (12%)
Language : English
Default : No
Forced : No
Text #1
ID : 4
Format : UTF-8
Codec ID : S_TEXT/UTF8
Codec ID/Info : UTF-8 Plain Text
Title : English
Language : English
Default : No
Forced : No
Text #2
ID : 5
Format : UTF-8
Codec ID : S_TEXT/UTF8
Codec ID/Info : UTF-8 Plain Text
Title : English SDH
Language : English
Default : No
Forced : No
Menu
00:00:00.000 : en:Buddy and Purvis
00:09:52.926 : en:Sheriff Hunt
00:24:26.340 : en:Hunt and Arthur
00:34:52.382 : en:A Rescue Plan
00:46:55.271 : en:The First Night
01:02:34.793 : en:Attacked
01:12:38.646 : en:Another Setback
01:27:47.512 : en:Prepare for Battle
01:34:12.772 : en:Deputy Nick
01:46:46.025 : en:Arthur to the Rescue
01:56:19.389 : en:A Last Fight for Freedom
02:04:48.398 : en:Credits

Скриншоты


_________________
Показать сообщения:    

Текущее время: Сегодня 08:02

Часовой пояс: GMT



Вы не можете начинать темы
Вы не можете отвечать на сообщения
Вы не можете редактировать свои сообщения
Вы не можете удалять свои сообщения
Вы не можете голосовать в опросах
Вы не можете прикреплять файлы к сообщениям
Вы не можете скачивать файлы