Важное объявление!
У Нас Все раздачи мультитрекерные, при нуле пиров в релизах, можете смело вставать на закачку!
 
Автор Сообщение

HUNTER

Стаж:
4 года 4 месяца
Сообщений:
56839

Репутация: 101

[+] [-]
Вне форума [Профиль] [ЛС]

Космический пират Харлок / Space Pirate Captain Harlock
Страна: Япония
Год выпуска: 2013 г.
Жанр: приключения, фантастика
Тип: Movie
Продолжительность: 115 мин.
Режиссер: Арамаки Синдзи
Студия: Toei Animation Company-Описание: Далекое будущее. Преступная корпорация Гайя стала злейшим врагом Земли, отобрав у людей все: свободу, дом, будущее… Казалось, что надежды на спасение нет… Но, появился Он — космический пират Харлок, капитан призрачного корабля Аркадия. Беглец, готовый сражаться за Землю. Кто Он, герой или преступник?..-Качество: BDRip
Тип релиза: Без хардсаба
Формат видео: .mp4
Релиз/Автор рипа: Albator 2013-Видео: H264; 1280x536; 23.976 fps; 1 999 kbps; 8 бит
Аудио: JAP, AAC, 164 kbps , 48KHz, 2 ch
Субтитры: ASS, встроенные; Язык субтитров французские;
L Перевод: Shiranai Fansub
Субтитры 2: ASS, внешние; Язык субтитров английские
L Перевод: nomakewan
Субтитры 3: ASS, внешние; Язык субтитров русский; Перевод команд: Lakfakalle
L Перевод: Abliarsar Редактура: Cynda

Подробные тех. данные

GeneralComplete name : D:\Download\Torrent\avdump\Space.Pirate.Captain.Harlock.2013.VOSTFR.720p.mp4Format : MPEG-4Format profile : Base Media / Version 2Codec ID : mp42File size : 1.74 GiBDuration : 1h 55mnOverall bit rate mode : VariableOverall bit rate : 2 169 KbpsMovie name : Jubowo @ WiKiEncoded date : UTC 2014-03-04 04:06:08Tagged date : UTC 2014-03-04 08:53:50Writing application : HandBrake 0.9.9 2013051800
VideoID : 1Format : AVCFormat/Info : Advanced Video CodecFormat profile : High@L5.0Format settings, CABAC : YesFormat settings, ReFrames : 8 framesCodec ID : avc1Codec ID/Info : Advanced Video CodingDuration : 1h 55mnBit rate : 2 000 KbpsWidth : 1 280 pixelsHeight : 536 pixelsDisplay aspect ratio : 2.40:1Frame rate mode : VariableFrame rate : 23.976 fpsMinimum frame rate : 23.974 fpsMaximum frame rate : 90 000.000 fpsColor space : YUVChroma subsampling : 4:2:0Bit depth : 8 bitsScan type : ProgressiveBits/(Pixel*Frame) : 0.122Stream size : 1.61 GiB (92%)Writing library : x264 core 130 r2273 b3065e6Encoding settings : cabac=1 / ref=8 / deblock=1:-1:-1 / analyse=0x3:0x133 / me=umh / subme=9 / psy=1 / psy_rd=1.00:0.15 / mixed_ref=1 / me_range=16 / chroma_me=1 / trellis=2 / 8x8dct=1 / cqm=0 / deadzone=21,11 / fast_pskip=1 / chroma_qp_offset=-3 / threads=6 / lookahead_threads=1 / sliced_threads=0 / nr=0 / decimate=1 / interlaced=0 / bluray_compat=0 / constrained_intra=0 / bframes=3 / b_pyramid=2 / b_adapt=2 / b_bias=0 / direct=3 / weightb=1 / open_gop=0 / weightp=2 / keyint=240 / keyint_min=24 / scenecut=40 / intra_refresh=0 / rc_lookahead=60 / rc=2pass / mbtree=1 / bitrate=2000 / ratetol=1.0 / qcomp=0.60 / qpmin=0 / qpmax=69 / qpstep=4 / cplxblur=20.0 / qblur=0.5 / vbv_maxrate=168750 / vbv_bufsize=168750 / nal_hrd=none / ip_ratio=1.40 / aq=1:1.00Encoded date : UTC 2014-03-04 04:06:08Tagged date : UTC 2014-03-04 08:53:50Color primaries : BT.709Transfer characteristics : BT.709Matrix coefficients : BT.709
AudioID : 2Format : AACFormat/Info : Advanced Audio CodecFormat profile : LCCodec ID : 40Duration : 1h 55mnBit rate mode : VariableBit rate : 164 KbpsMaximum bit rate : 277 KbpsChannel(s) : 2 channelsChannel positions : Front: L RSampling rate : 48.0 KHzCompression mode : LossyStream size : 135 MiB (8%)Language : JapaneseEncoded date : UTC 2014-03-04 04:06:08Tagged date : UTC 2014-03-04 08:53:50
TextID : 3Format : Timed TextMuxing mode : sbtlCodec ID : tx3gDuration : 1h 47mnBit rate mode : VariableBit rate : 55 bpsStream size : 43.2 KiB (0%)Language : FrenchEncoded date : UTC 2014-03-04 04:06:08Tagged date : UTC 2014-03-04 08:46:09

Скриншоты


_________________
Показать сообщения:    

Текущее время: Сегодня 22:29

Часовой пояс: GMT



Вы не можете начинать темы
Вы не можете отвечать на сообщения
Вы не можете редактировать свои сообщения
Вы не можете удалять свои сообщения
Вы не можете голосовать в опросах
Вы не можете прикреплять файлы к сообщениям
Вы не можете скачивать файлы