Важное объявление!
У Нас Все раздачи мультитрекерные, при нуле пиров в релизах, можете смело вставать на закачку!
 
Автор Сообщение

димитри37

Стаж:
3 года 8 месяцев
Сообщений:
1237

Репутация: 127

[+] [-]
Вне форума [Профиль] [ЛС]

Космический крестовый поход / The High Crusade
Оригинальное название: The High Crusade
Название: Космический крестовый поход
Страна: Германия
Жанр: Фантастика, Приключения, Комедия
Год выпуска: 1994
Продолжительность: 01:27:59
Перевод: Профессиональный (двухголосый закадровый) РЕН ТВ
Cубтитры: нет
Оригинальная аудиодорожка: английский
Режиссер: Клаус Кнэсел / Klaus Knoesel, Холгер Ноэхойзер / Holger Neuhдuser
В ролях: Джон Риз-Дэйвис / John Rhys-Davies, Рик Овертон / Rick Overton, Майкл Де Баррэ / Michael Des Barres, Кэтрин Панч / Catherine Punch, Пэтрик Браймер / Patrick Brymer, Дебби Ли Кэррингтон / Debbie Lee Carrington, Рэй Коукс / Ray Cokes
Описание: 1345 год. Время крестовых походов. Гонец прибывает в Англию и просит британцев двинуться на Иерусалим, чтобы одолеть сарацинов. Неожиданно на пути войска появляется ... космический корабль инопланетян. Тут и начинаются забавные приключения рыцарей за пределами Солнечной системы. Фильм снят по мотивам одноименного фантастического романа Пола Андерсона.

Качество видео: DVDRip Источник
Формат видео: AVI
Видео: 704x304 (2.32:1), 25 fps, XviD build 47 ~1832 kbps avg, 0.34 bit/pixel
Аудио 1: 48 kHz, AC3 Dolby Digital, 2/0 (L,R) ch, ~192 kbps
Аудио 2: 48 kHz, AC3 Dolby Digital, 2/0 (L,R) ch, ~192 kbps
Видео кодек: XviD build 47
Аудио кодек: AC3 Dolby Digital

MediaInfo

General
Complete name : C:\Users\Александр\Desktop\Кино\Космический крестовый поход.avi
Format : AVI
Format/Info : Audio Video Interleave
File size : 1.37 GiB
Duration : 1h 27mn
Overall bit rate : 2 232 Kbps
Writing application : VirtualDubMod 1.5.10.2 (build 2540/release)
Writing library : VirtualDubMod build 2540/release
Video
ID : 0
Format : MPEG-4 Visual
Format profile : Advanced Simple@L5
Format settings, BVOP : 1
Format settings, QPel : No
Format settings, GMC : No warppoints
Format settings, Matrix : Default (MPEG)
Codec ID : XVID
Codec ID/Hint : XviD
Duration : 1h 27mn
Bit rate : 1 834 Kbps
Width : 704 pixels
Height : 304 pixels
Display aspect ratio : 2.35:1
Frame rate : 25.000 fps
Color space : YUV
Chroma subsampling : 4:2:0
Bit depth : 8 bits
Scan type : Progressive
Compression mode : Lossy
Bits/(Pixel*Frame) : 0.343
Stream size : 1.13 GiB (82%)
Writing library : XviD 1.2.0.dev47 (UTC 2006-11-01)
Audio #1
ID : 1
Format : AC-3
Format/Info : Audio Coding 3
Mode extension : CM (complete main)
Format settings, Endianness : Big
Codec ID : 2000
Duration : 1h 27mn
Bit rate mode : Constant
Bit rate : 192 Kbps
Channel(s) : 2 channels
Channel positions : Front: L R
Sampling rate : 48.0 KHz
Bit depth : 16 bits
Compression mode : Lossy
Delay relative to video : 14ms
Stream size : 121 MiB (9%)
Alignment : Split accross interleaves
Interleave, duration : 40 ms (1.00 video frame)
Interleave, preload duration : 500 ms
Audio #2
ID : 2
Format : AC-3
Format/Info : Audio Coding 3
Mode extension : CM (complete main)
Format settings, Endianness : Big
Codec ID : 2000
Duration : 1h 27mn
Bit rate mode : Constant
Bit rate : 192 Kbps
Channel(s) : 2 channels
Channel positions : Front: L R
Sampling rate : 48.0 KHz
Bit depth : 16 bits
Compression mode : Lossy
Delay relative to video : 14ms
Stream size : 121 MiB (9%)
Alignment : Split accross interleaves
Interleave, duration : 40 ms (1.00 video frame)
Interleave, preload duration : 500 ms

Скриншоты

-

bot

Вне форума [Профиль] [ЛС]

Топик был перенесен из форума Новые релизы в форум Новые релизы
димитри37
 
Показать сообщения:    

Текущее время: Сегодня 10:43

Часовой пояс: GMT



Вы не можете начинать темы
Вы не можете отвечать на сообщения
Вы не можете редактировать свои сообщения
Вы не можете удалять свои сообщения
Вы не можете голосовать в опросах
Вы не можете прикреплять файлы к сообщениям
Вы не можете скачивать файлы