Важное объявление!
У Нас Все раздачи мультитрекерные, при нуле пиров в релизах, можете смело вставать на закачку!
 
Автор Сообщение

HUNTER

Стаж:
4 года 4 месяца
Сообщений:
56829

Репутация: 101

[+] [-]
Вне форума [Профиль] [ЛС]

Космические спасатели лейтенанта Марша / ExoSquad-
Год выпуска: 1993-1994
Страна: США
Жанр: научная фантастика, приключения
Продолжительность: 00:21:00
Кол-во эпизодов: 52
Перевод: дублированный («Селена Интернэшнл», по заказу ОРТ)
Субтитры: отсутствуют-Студия: Universal Cartoon Studios
Режиссёр: Грэхэм Моррис / Graham Morris-Описание:
Действие происходит в 22-м веке. Человечество искусственным путём создало новую расу людей (неосапианты). Их эксплуатировали как рабов, но после кровавых восстаний и межпланетных войн наделили равными правами. Люди колонизировали Марс и Венеру, и с помощью создания нового почвенного покрова, сделали условия на этих планетах пригодными для проживания. В центре сюжета вторая война между людьми и неосапиантами. Основные действующие лица — бойцы людского космического флота.-Качество: TVRip
Формат: AVI
Видео:(1й серии) DivX, 704x528, 3.341Kbps, 25.000fps
Аудио:(1й серии) RUS - MP3, 44.1KHz, 2ch, 256Kbps
Видео:(2ой по 52ую серии) DivX, 640x480, 2.969Kbps, 25.000fps
Аудио:(2ой по 52ую серии) RUS - MP3, 48.0 KHz, 2ch, 128Kbps-

Эпизоды

01.Пиратский бич (англ. Pirate Scourge)
02.Зёрна Обмана (англ. Seeds of Deception)
03.Скрытые опасности (англ. Hidden Terrors)
04.Блицкриг (англ. Blitzkrieg)
05.Сопротивление! (англ. Resist!)
06.Цель: Земля (англ. Target: Earth)
07.Среди нас предатель (англ. A Traitor Among Us)
08.Обожжённая Венера (англ. Scorched Venus)
09.Диверсия (англ. Sabotage)
10.Покинутые (англ. Abandoned!)
11.Последний бой Резолюта (англ. The Brood)
12.Предательство (англ. Betrayal)
13.Бросая вызов Олимпу (англ. Defying Olympus)
14.Встреча (англ. The Gathering)
15.Посланцы (англ. The Embassy)
16.Пиратский выкуп (англ. Pirates Ransom)
17.Абсолютное оружие (англ. Ultimate Weapon)
18.Двойник (англ. Expendable)
19.Заблуждение (англ. Mind Set)
20.Последний человек (англ. The Last Man)
21.Драконья скала (англ. Dragon's Rock)
22.В плену у тьмы (англ. Inner Dark)
23.Псы войны (англ. The Docs of War)
24.Первый шаг (англ. The First Step)
25.Самый жуткий кошмар (англ. The Greatest Fear)
26.В чужой шкуре (англ. Flesh Crawls)
27.За щитом (англ. Behind The Shield)
28.Восставшая Венера (англ. Venus Rising)
29.Чудо (англ. Miracle)
30.Под чужой личиной (англ. Under The Skin)
31.Ультиматум (англ. Ultimatum)
32.Племя войны (англ. Warrior Brood)
33.Война снов (англ. The Dream War)
34.Ни шагу назад (англ. No Surrender)
35.Огненный корабль (англ. Fire Ship)
36.Марсианская удача (англ. Martian Luck)
37.Затерянный отряд (англ. The Lost Patrol)
38.Зов неизведанного (англ. Call of the Unknown)
39.В самом сердце Марса (англ. Heart of Mars)
40.Крылатая ярость (англ. Winged Fury)
41.Ночь предателя (англ. Night of the Traitor)
42.Испытание боем (англ. Trial by Combat)
43.Идеальный солдат (англ. The Perfect Warrior)
44.Цена доблести (англ. The Price of Courage)
45.Тёмная река (англ. Dark River)
46.Военное искусство (англ. The Art of War)
47.Крах Неосапиантской Империи, часть1 (англ. The Fall of The Neosapien Empire Part1)
48.Крах Неосапиантской Империи, часть2 (англ. The Fall of The Neosapien Empire Part2)
49.Крах Неосапиантской Империи, часть3 (англ. The Fall of The Neosapien Empire Part3)
50.Крах Неосапиантской Империи, часть4 (англ. The Fall of The Neosapien Empire Part4)
51.Крах Неосапиантской Империи, часть5 (англ. The Fall of The Neosapien Empire Part5)
52.За гранью Хаоса (англ. Beyond Chaos)

Доп. информация

Рецензия с КиноПоиска

еще постеры

MediaInfo

1ая серия

Код: copyText_writeLink('this.parentNode.parentNode.nextSibling.nextSibling');
General
Complete name : 01_Pirate_Scourge.avi
Format : AVI
Format/Info : Audio Video Interleave
File size : 557 MiB
Duration : 21mn 34s
Overall bit rate : 3 607 Kbps
Writing application : VirtualDubModRus 1.5.10.2 (build 2542/release)
Writing library : VirtualDubMod build 2542/release
Video
ID : 0
Format : MPEG-4 Visual
Format settings, BVOP : 1
Format settings, QPel : No
Format settings, GMC : No warppoints
Format settings, Matrix : Default (H.263)
Muxing mode : Packed bitstream
Codec ID : DX50
Codec ID/Hint : DivX 5
Duration : 21mn 34s
Bit rate : 3 341 Kbps
Width : 704 pixels
Height : 528 pixels
Display aspect ratio : 4:3
Frame rate : 25.000 fps
Color space : YUV
Chroma subsampling : 4:2:0
Bit depth : 8 bits
Scan type : Progressive
Compression mode : Lossy
Bits/(Pixel*Frame) : 0.360
Stream size : 516 MiB (93%)
Writing library : DivX 5.0.5 (UTC 2003-04-24)
Audio
ID : 1
Format : MPEG Audio
Format version : Version 1
Format profile : Layer 3
Codec ID : 55
Codec ID/Hint : MP3
Duration : 21mn 34s
Bit rate mode : Constant
Bit rate : 256 Kbps
Channel(s) : 2 channels
Sampling rate : 44.1 KHz
Compression mode : Lossy
Stream size : 39.5 MiB (7%)
Alignment : Split accross interleaves
Interleave, duration : 40 ms (1.00 video frame)
Interleave, preload duration : 500 ms

со 2ой по 52ую серию

Код: copyText_writeLink('this.parentNode.parentNode.nextSibling.nextSibling');
General
Complete name : 02_Seeds_of_Deception.avi
Format : AVI
Format/Info : Audio Video Interleave
File size : 450 MiB
Duration : 20mn 23s
Overall bit rate mode : Variable
Overall bit rate : 3 083 Kbps
Writing application : VirtualDubMod 1.5.4.1 (build 2178/release)
Writing library : VirtualDubMod build 2178/release
Video
ID : 0
Format : MPEG-4 Visual
Format settings, BVOP : 1
Format settings, QPel : No
Format settings, GMC : No warppoints
Format settings, Matrix : Default (H.263)
Muxing mode : Packed bitstream
Codec ID : DX50
Codec ID/Hint : DivX 5
Duration : 20mn 23s
Bit rate : 2 969 Kbps
Width : 640 pixels
Height : 480 pixels
Display aspect ratio : 4:3
Frame rate : 25.000 fps
Color space : YUV
Chroma subsampling : 4:2:0
Bit depth : 8 bits
Scan type : Progressive
Compression mode : Lossy
Bits/(Pixel*Frame) : 0.387
Stream size : 433 MiB (96%)
Writing library : DivX 5.1.1 (Maupiti) (UTC 2003-11-19)
Audio
ID : 1
Format : MPEG Audio
Format version : Version 1
Format profile : Layer 3
Mode : Joint stereo
Mode extension : MS Stereo
Codec ID : 55
Codec ID/Hint : MP3
Duration : 20mn 23s
Bit rate mode : Variable
Bit rate : 101 Kbps
Nominal bit rate : 128 Kbps
Channel(s) : 2 channels
Sampling rate : 48.0 KHz
Compression mode : Lossy
Delay relative to video : 48ms
Stream size : 14.8 MiB (3%)
Alignment : Split accross interleaves
Interleave, duration : 24 ms (0.60 video frame)
Interleave, preload duration : 666 ms
Writing library : LAME3.97b
Encoding settings : -m j -V 4 -q 2 -lowpass 17 --abr 128
-

кусок первый серии на Ютубе без перевода (Exosquad - Opening #1 (High Quality))

Скриншоты

-

_________________
Показать сообщения:    

Текущее время: Сегодня 14:51

Часовой пояс: GMT



Вы не можете начинать темы
Вы не можете отвечать на сообщения
Вы не можете редактировать свои сообщения
Вы не можете удалять свои сообщения
Вы не можете голосовать в опросах
Вы не можете прикреплять файлы к сообщениям
Вы не можете скачивать файлы